+7

Три мушкетёра: Миледи / Les Trois Mousquetaires: Milady / The Three Musketeers - Part II: Milady (2023) WEB-DL 1080p от селезень | D | Локализованная версия

Информация о фильме
Название: Три мушкетёра: Миледи
Оригинальное название: Les Trois Mousquetaires: Milady
Год выхода: 2023
Жанр: боевик, приключения, история
Режиссер: Мартен Бурбулон
В ролях: Франсуа Сивиль, Венсан Кассель, Ромен Дюрис, Пио Мармай, Ева Грин, Луи Гаррель, Вики Крипс, Лина Кудри, Джейкоб Форчун-Ллойд, Эрик Руф

О фильме: На глазах Д'Артаньяна похищают его возлюбленную Констанцию. Пока верные друзья, три королевских мушкетёра Атос, Портос и Арамис, сражаются на поле боя, Д'Артаньян вынужден объединить усилия с таинственной Миледи, чтобы спасти свою любимую. Но страшные тайны прошлого могут разрушить как новые союзы, так и старую дружбу.

Страна: Франция, Германия, Испания, Бельгия
Студия: Chapter 2, Constantin Film, M6 Films, Pathe, Radar Films, uMedia Family
Продолжительность: 01:49:23
Перевод: Дублированный | Пифагор (KION)

Качество: WEB-DL 1080p
Видео: MPEG-4 AVC, 1920x1080, 6144 Kbit/s, 25.000 fps
Аудио: 48 kHz, AC3, 5.1, 640 Kbps | Дублированный | RUS |Три мушкетёра: Миледи / Les Trois Mousquetaires: Milady / The Three Musketeers - Part II: Milady (2023) WEB-DL 1080p от селезень | D | Локализованная версия
Субтитры: Русские (Full)

Три мушкетёра: Миледи / Les Trois Mousquetaires: Milady / The Three Musketeers - Part II: Milady (2023) WEB-DL 1080p от селезень | D | Локализованная версия

Авторизуйтесь для получения доступа к скачиванию

Нет аккаунта? Регистрация открыта и займёт меньше минуты

Вход Регистрация

General
Unique ID : 230542739923313901771942789388898200559 (0xAD70EAA820EC2449FF1DAB52FB94EBEF)
Complete name : H:\VideoH\The.Three.Musketeers.Part.2.Milady.2023.WEB-DL.1080p.seleZen.mkv
Format : Matroska
Format version : Version 4
File size : 5.09 GiB
Duration : 1 h 49 min
Overall bit rate : 6 668 kb/s
Frame rate : 25.000 FPS
Movie name : The Three Musketeers - Part II: Milady 2023 from seleZen
Encoded date : 2024-03-29 05:31:48 UTC
Writing application : mkvmerge v80.0 ('Roundabout') 64-bit
Writing library : libebml v1.4.4 + libmatroska v1.7.1

Video
ID : 1
Format : AVC
Format/Info : Advanced Video Codec
Format profile : Constrained Baseline@L4
Format settings : 2 Ref Frames
Format settings, CABAC : No
Format settings, Reference : 2 frames
Format settings, GOP : M=1, N=25
Format settings, Slice coun : 7 slices per frame
Codec ID : V_MPEG4/ISO/AVC
Duration : 1 h 49 min
Bit rate mode : Constant
Bit rate : 6 144 kb/s
Width : 1 920 pixels
Height : 1 080 pixels
Display aspect ratio : 16:9
Frame rate mode : Constant
Frame rate : 25.000 FPS
Color space : YUV
Chroma subsampling : 4:2:0
Bit depth : 8 bits
Scan type : Progressive
Bits/(Pixel*Frame) : 0.119
Stream size : 4.60 GiB (90%)
Language : English
Default : Yes
Forced : No

Audio
ID : 2
Format : AC-3
Format/Info : Audio Coding 3
Commercial name : Dolby Digital
Codec ID : A_AC3
Duration : 1 h 49 min
Bit rate mode : Constant
Bit rate : 640 kb/s
Channel(s) : 6 channels
Channel layout : L R C LFE Ls Rs
Sampling rate : 48.0 kHz
Frame rate : 31.250 FPS (1536 SPF)
Compression mode : Lossy
Stream size : 501 MiB (10%)
Language : Russian
Service kind : Complete Main
Default : Yes
Forced : No

Text
ID : 3
Format : UTF-8
Codec ID : S_TEXT/UTF8
Codec ID/Info : UTF-8 Plain Text
Duration : 1 h 42 min
Bit rate : 72 b/s
Frame rate : 0.165 FPS
Count of elements : 1011
Stream size : 54.2 KiB (0%)
Language : Russian
Default : No
Forced : No

Другие фильмы
У данной публикации пока нет комментариев.
Будь первым, оставь своё мнение в комментариях!
Информация
Посетители, находящиеся в группе Гости, не могут оставлять комментарии к данной публикации.
Самый популярный релиз недели
Донаты
Мы в соц. сетях / RSS

Лучшие релизы месяца
Лучшие SD недели
Лучшие 720p недели
Лучшие 1080p недели
Лучшие 4K недели
Вы недавно смотрели
Реклама
Последние комментарии
...

Tony1984

Вчера, 14:36

...

bolonka123

19 апреля 2024 10:05

...

Sergunka

17 апреля 2024 23:31

...

-=DoMiNo=-

17 апреля 2024 13:52

...

bolonka123

17 апреля 2024 11:43

Реклама