+8

Мадам Паутина / Madame Web (2024) UHD WEB-DL 2160p от селезень | 4K | HDR | Dolby Vision Profile 8 | D, P, P2

Информация о фильме
Название: Мадам Паутина
Оригинальное название: Madame Web
Год выхода: 2024
Жанр: фантастика, боевик, приключения
Режиссер: С.Дж. Кларксон
В ролях: Дакота Джонсон, Сидни Суини, Изабела Мерсед, Селеста О'Коннор, Тахар Рахим, Майк Эппс, Эмма Робертс, Адам Скотт, Керри Бише, Заша Мэмет

О фильме: Медсестра из Манхэттена Кассандра Уэбб открывает в себе способность видеть будущее и понимает, что может использовать эту силу, чтобы его изменить. Столкнувшись с тайнами своего прошлого, Кассандра знакомится с тремя девушками, которым суждено однажды стать великими, если они вместе смогут пережить смертельно опасное настоящее.

Страна: США, Канада, Мексика
Студия: Columbia Pictures Corporation, Marvel Entertainment, Sony Pictures Entertainment (SPE)
Продолжительность: 01:56:11
Перевод 1: Дублированный (профессиональный) | MovieDalen
Перевод 2: Профессиональный (многоголосый, закадровый) | TVShows
Перевод 3: Профессиональный (многоголосый, закадровый) | LostFilm
Перевод 4: Профессиональный (двухголосый, закадровый) | ViruseProject
Субтитры: Русские (Forced, full), украинские (Forced, full), английские

Файл
Формат: Matroska
Качество: WEB-DL 2160p
Видео: 3840x1606 at 23.976 fps, MPEG-H HEVC HDR Video, 23900 kbps avg
Аудио #01: 48 kHz, AC3, 5.1, 448 Kbps | MovieDalen | RUS |Мадам Паутина / Madame Web (2024) UHD WEB-DL 2160p от селезень | 4K | HDR | Dolby Vision Profile 8 | D, P, P2
Аудио #02: 48 kHz, AC3, 5.1, 384 Kbps | TVShows | RUS |
Аудио #03: 48 kHz, AC3, 2.0, 384 Kbps | LostFilm | RUS |
Аудио #04: 48 kHz, AC3, 5.1, 640 Kbps | ViruseProject | RUS |
Аудио #05: 48 kHz, E-AC3+Atmos, 5.1, 768 Kbps | Оригинал | ENG |
Формат субтитров: softsub (SRT)

Мадам Паутина / Madame Web (2024) UHD WEB-DL 2160p от селезень | 4K | HDR | Dolby Vision Profile 8 | D, P, P2

Авторизуйтесь для получения доступа к скачиванию

Нет аккаунта? Регистрация открыта и займёт меньше минуты

Вход Регистрация

General
Unique ID : 332437221410655101041916584148661708925 (0xFA19147694242C63D366F7D9AEE0287D)
Complete name : H:\VideoH\Madame.Web.2024.WEB-DL.2160p.HDR.DVP8.seleZen.mkv
Format : Matroska
Format version : Version 4
File size : 21.5 GiB
Duration : 1 h 57 min
Overall bit rate : 26.1 Mb/s
Frame rate : 23.976 FPS
Movie name : Madame Web (2024) from seleZen
Encoded date : 2024-04-02 07:15:08 UTC
Writing application : mkvmerge v80.0 ('Roundabout') 64-bit
Writing library : libebml v1.4.4 + libmatroska v1.7.1

Video
ID : 1
Format : HEVC
Format/Info : High Efficiency Video Coding
Format profile : Main 10@L5@High
HDR format : Dolby Vision, Version 1.0, dvhe.08.06, BL+RPU, HDR10 compatible / SMPTE ST 2086, HDR10 compatible
Codec ID : V_MPEGH/ISO/HEVC
Duration : 1 h 56 min
Bit rate : 23.9 Mb/s
Width : 3 840 pixels
Height : 1 606 pixels
Display aspect ratio : 2.39:1
Frame rate mode : Constant
Frame rate : 23.976 (24000/1001) FPS
Original frame rate : 23.976 (23976/1000) FPS
Color space : YUV
Chroma subsampling : 4:2:0 (Type 2)
Bit depth : 10 bits
Bits/(Pixel*Frame) : 0.162
Stream size : 19.4 GiB (90%)
Language : English
Default : Yes
Forced : No
Color range : Limited
Color primaries : BT.2020
Transfer characteristics : PQ
Matrix coefficients : BT.2020 non-constant
Mastering display color pri : BT.2020
Mastering display luminance : min: 0.0050 cd/m2, max: 1000 cd/m2
Maximum Content Light Level : 1809 cd/m2
Maximum Frame-Average Light : 760 cd/m2

Audio #1
ID : 2
Format : AC-3
Format/Info : Audio Coding 3
Commercial name : Dolby Digital
Codec ID : A_AC3
Duration : 1 h 56 min
Bit rate mode : Constant
Bit rate : 448 kb/s
Channel(s) : 6 channels
Channel layout : L R C LFE Ls Rs
Sampling rate : 48.0 kHz
Frame rate : 31.250 FPS (1536 SPF)
Compression mode : Lossy
Stream size : 373 MiB (2%)
Title : Dub_MovieDalen
Language : Russian
Service kind : Complete Main
Default : Yes
Forced : No

Audio #2
ID : 3
Format : AC-3
Format/Info : Audio Coding 3
Commercial name : Dolby Digital
Codec ID : A_AC3
Duration : 1 h 56 min
Bit rate mode : Constant
Bit rate : 384 kb/s
Channel(s) : 6 channels
Channel layout : L R C LFE Ls Rs
Sampling rate : 48.0 kHz
Frame rate : 31.250 FPS (1536 SPF)
Compression mode : Lossy
Stream size : 319 MiB (1%)
Title : MVO_TVShows
Language : Russian
Service kind : Complete Main
Default : No
Forced : No

Audio #3
ID : 4
Format : AC-3
Format/Info : Audio Coding 3
Commercial name : Dolby Digital
Codec ID : A_AC3
Duration : 1 h 57 min
Bit rate mode : Constant
Bit rate : 384 kb/s
Channel(s) : 2 channels
Channel layout : L R
Sampling rate : 48.0 kHz
Frame rate : 31.250 FPS (1536 SPF)
Compression mode : Lossy
Stream size : 324 MiB (1%)
Title : MVO_LostFilm
Language : Russian
Service kind : Complete Main
Default : No
Forced : No

Audio #4
ID : 5
Format : AC-3
Format/Info : Audio Coding 3
Commercial name : Dolby Digital
Codec ID : A_AC3
Duration : 1 h 56 min
Bit rate mode : Constant
Bit rate : 640 kb/s
Channel(s) : 6 channels
Channel layout : L R C LFE Ls Rs
Sampling rate : 48.0 kHz
Frame rate : 31.250 FPS (1536 SPF)
Compression mode : Lossy
Stream size : 532 MiB (2%)
Title : DVO_ViruseProject
Language : Russian
Service kind : Complete Main
Default : No
Forced : No

Audio #5
ID : 6
Format : E-AC-3 JOC
Format/Info : Enhanced AC-3 with Joint Object Coding
Commercial name : Dolby Digital Plus with Dolby Atmos
Codec ID : A_EAC3
Duration : 1 h 56 min
Bit rate mode : Constant
Bit rate : 768 kb/s
Channel(s) : 6 channels
Channel layout : L R C LFE Ls Rs
Sampling rate : 48.0 kHz
Frame rate : 31.250 FPS (1536 SPF)
Compression mode : Lossy
Delay relative to video : 22 ms
Stream size : 638 MiB (3%)
Title : Original
Language : English
Service kind : Complete Main
Default : No
Forced : No
Complexity index : 16
Number of dynamic objects : 15
Bed channel count : 1 channel
Bed channel configuration : LFE

Text #1
ID : 7
Format : UTF-8
Codec ID : S_TEXT/UTF8
Codec ID/Info : UTF-8 Plain Text
Duration : 1 h 24 min
Bit rate : 2 b/s
Frame rate : 0.004 FPS
Count of elements : 22
Stream size : 1.46 KiB (0%)
Title : Forced
Language : Russian
Default : Yes
Forced : No

Text #2
ID : 8
Format : UTF-8
Codec ID : S_TEXT/UTF8
Codec ID/Info : UTF-8 Plain Text
Duration : 1 h 55 min
Bit rate : 91 b/s
Frame rate : 0.221 FPS
Count of elements : 1527
Stream size : 77.4 KiB (0%)
Title : Full
Language : Russian
Default : No
Forced : No

Text #3
ID : 9
Format : UTF-8
Codec ID : S_TEXT/UTF8
Codec ID/Info : UTF-8 Plain Text
Duration : 1 h 21 min
Bit rate : 1 b/s
Frame rate : 0.003 FPS
Count of elements : 14
Stream size : 835 Bytes (0%)
Title : Forced
Language : Ukrainian
Default : No
Forced : No

Text #4
ID : 10
Format : UTF-8
Codec ID : S_TEXT/UTF8
Codec ID/Info : UTF-8 Plain Text
Duration : 1 h 54 min
Bit rate : 94 b/s
Frame rate : 0.236 FPS
Count of elements : 1626
Stream size : 79.8 KiB (0%)
Title : Full
Language : Ukrainian
Default : No
Forced : No

Text #5
ID : 11
Format : UTF-8
Codec ID : S_TEXT/UTF8
Codec ID/Info : UTF-8 Plain Text
Duration : 1 h 47 min
Bit rate : 59 b/s
Frame rate : 0.251 FPS
Count of elements : 1611
Stream size : 46.4 KiB (0%)
Title : Full
Language : English (GB)
Default : No
Forced : No

Text #6
ID : 12
Format : UTF-8
Codec ID : S_TEXT/UTF8
Codec ID/Info : UTF-8 Plain Text
Duration : 1 h 47 min
Bit rate : 68 b/s
Frame rate : 0.297 FPS
Count of elements : 1922
Stream size : 54.1 KiB (0%)
Title : SDH
Language : English (US)
Default : No
Forced : No

Text #7
ID : 13
Format : UTF-8
Codec ID : S_TEXT/UTF8
Codec ID/Info : UTF-8 Plain Text
Duration : 1 h 55 min
Bit rate : 70 b/s
Frame rate : 0.314 FPS
Count of elements : 2175
Stream size : 59.4 KiB (0%)
Title : SDH
Language : English
Default : No
Forced : No

Menu
00:00:00.000 : en:Chapter 01
00:07:55.684 : en:Chapter 02
00:15:51.659 : en:Chapter 03
00:22:54.249 : en:Chapter 04
00:27:42.620 : en:Chapter 05
00:36:52.962 : en:Chapter 06
00:44:36.176 : en:Chapter 07
00:52:22.475 : en:Chapter 08
01:00:17.575 : en:Chapter 09
01:07:17.370 : en:Chapter 10
01:17:02.747 : en:Chapter 11
01:20:05.513 : en:Chapter 12
01:28:01.740 : en:Chapter 13
01:35:39.114 : en:Chapter 14
01:46:37.605 : en:Chapter 15
01:48:51.072 : en:Chapter 16

Другие фильмы
У данной публикации пока нет комментариев.
Будь первым, оставь своё мнение в комментариях!
Информация
Посетители, находящиеся в группе Гости, не могут оставлять комментарии к данной публикации.
Самый популярный релиз недели
Донаты
Мы в соц. сетях / RSS

Лучшие релизы месяца
Лучшие SD недели
Лучшие 720p недели
Лучшие 1080p недели
Лучшие 4K недели
Вы недавно смотрели
Реклама
Последние комментарии
...

Tony1984

Вчера, 14:36

...

bolonka123

19 апреля 2024 10:05

...

Sergunka

17 апреля 2024 23:31

...

-=DoMiNo=-

17 апреля 2024 13:52

...

bolonka123

17 апреля 2024 11:43

Реклама