+14

Мадам Паутина / Madame Web (2024) WEB-DLRip-AVC от DoMiNo & селезень | D

Информация о фильме
Название: Мадам Паутина
Оригинальное название: Madame Web
Год выхода: 2024
Жанр: Фантастика, боевик, приключения
Режиссер: С.Дж. Кларксон
В ролях: Дакота Джонсон, Сидни Суини, Изабела Мерсед, Селеста О’Коннор, Тахар Рахим, Майк Эппс, Эмма Робертс, Адам Скотт, Керри Бише, Заша Мэмет

О фильме:
Медсестра из Манхэттена Кассандра Уэбб открывает в себе способность видеть будущее и понимает, что может использовать эту силу, чтобы его изменить. Столкнувшись с тайнами своего прошлого, Кассандра знакомится с тремя девушками, которым суждено однажды стать великими, если они вместе смогут пережить смертельно опасное настоящее.

Страна: США, Канада, Мексика
Продолжительность: 01:57:49
Перевод: Дублированный (MovieDalen)
Субтитры: Русские (Forced, full), английские, украинские

Файл
Формат: Matroska
Качество: WEB-DLRip-AVC
Видео: 1024x426 at 23.976 fps, [email protected], ~1909 kbps
Аудио: AC3, 6 ch, ~448 kbps - | Русский | Мадам Паутина / Madame Web (2024) WEB-DLRip-AVC от DoMiNo & селезень | D
Формат субтитров: softsub (SRT)

Авторизуйтесь для получения доступа к скачиванию

Нет аккаунта? Регистрация открыта и займёт меньше минуты

Вход Регистрация

General
Unique ID: 19743235553383155742510984116427135840 (0xEDA68AABAEA316E5A712E3177399B60)
Complete name: S: Madame.Web.2024.DUB.WEB-DLRip.x264.seleZen.mkv
Format: Matroska
Format version: Version 4
File size: 1.94 GiB
Duration: 1 h 57 min
Overall bit rate: 2 353 kb/s
Frame rate: 23.976 FPS
Movie name: Madame.Web.2024.DUB.WEB-DLRip.x264.seleZen
Encoded date: 02.04.2024 07:43:07 UTC
Writing application: mkvmerge v83.0 ('Circle Of Friends') 64-bit
Writing library: libebml v1.4.5 + libmatroska v1.7.1
Cover: Yes
Attachments: cover.jpg / small_cover.jpg

Video
ID: 1
Format: AVC
Format/Info: Advanced Video Codec
Format profile: [email protected]
Format settings: CABAC / 14 Ref Frames
Format settings, CABAC: Yes
Format settings, Reference: 14 frames
Codec ID: V_MPEG4/ISO/AVC
Duration: 1 h 57 min
Bit rate: 1 909 kb/s
Width: 1 024 pixels
Height: 426 pixels
Display aspect ratio: 2.40:1
Frame rate mode: Constant
Frame rate: 23.976 (24000/1001) FPS
Color space: YUV
Chroma subsampling: 4:2:0
Bit depth: 8 bits
Scan type: Progressive
Bits/(Pixel*Frame): 0.182
Stream size: 1.57 GiB (81%)
Title: -=DoMiNo=-
Writing library: x264 core 164 r3179+58M 2d8d988 t_mod_New [(8 & 10)-DoMiNo- X86_64]
Encoding settings: cabac=1 / ref=14 / deblock=1:-2:-1 / analyse=0×3:0×133 / me=umh / subme=10 / psy=1 / fade_compensate=0.00 / psy_rd=1.00:0.15 / mixed_ref=1 / me_range=32 / chroma_me=1 / trellis=2 / 8×8dct=1 / cqm=0 / deadzone=21,11 / fast_pskip=0 / chroma_qp_offset=-3 / threads=13 / lookahead_threads=3 / sliced_threads=0 / nr=0 / decimate=0 / interlaced=0 / bluray_compat=0 / constrained_intra=0 / fgo=0 / bframes=10 / b_pyramid=2 / b_adapt=2 / b_bias=0 / direct=3 / weightb=1 / open_gop=0 / weightp=2 / keyint=240 / keyint_min=23 / scenecut=40 / intra_refresh=0 / rc_lookahead=60 / rc=crf / mbtree=0 / crf=18.8000 / qcomp=0.60 / qpmin=0:0:0 / qpmax=69:69:69 / qpstep=4 / vbv_maxrate=50000 / vbv_bufsize=62500 / crf_max=0.0 / nal_hrd=none / filler=0 / ip_ratio=1.40 / pb_ratio=1.30 / aq=3:0.90 / aq-sensitivity=10.00 / aq-factor=1.00:1.00:1.00:1.00 / aq2=0 / aq3=0
Language: English
Default: Yes
Forced: No
Color range: Limited
Color primaries: BT.709
Transfer characteristics: BT.709
Matrix coefficients: BT.709

Audio
ID: 2
Format: AC-3
Format/Info: Audio Coding 3
Commercial name: Dolby Digital
Codec ID: A_AC3
Duration: 1 h 56 min
Bit rate mode: Constant
Bit rate: 448 kb/s
Channel (s): 6 channels
Channel layout: L R C LFE Ls Rs
Sampling rate: 48.0 kHz
Frame rate: 31.250 FPS (1536 SPF)
Compression mode: Lossy
Stream size: 373 MiB (19%)
Title: Dub_MovieDalen
Language: Russian
Service kind: Complete Main
Default: Yes
Forced: No

Text #1
ID: 3
Format: UTF-8
Codec ID: S_TEXT/UTF8
Codec ID/Info: UTF-8 Plain Text
Duration: 1 h 24 min
Bit rate: 2 b/s
Frame rate: 0.004 FPS
Count of elements: 22
Stream size: 1.46 KiB (0%)
Title: Forced
Language: Russian
Default: No
Forced: No

Text #2
ID: 4
Format: UTF-8
Codec ID: S_TEXT/UTF8
Codec ID/Info: UTF-8 Plain Text
Duration: 1 h 55 min
Bit rate: 91 b/s
Frame rate: 0.221 FPS
Count of elements: 1527
Stream size: 77.4 KiB (0%)
Title: Full
Language: Russian
Default: No
Forced: No

Text #3
ID: 5
Format: UTF-8
Codec ID: S_TEXT/UTF8
Codec ID/Info: UTF-8 Plain Text
Duration: 1 h 21 min
Bit rate: 1 b/s
Frame rate: 0.003 FPS
Count of elements: 14
Stream size: 835 Bytes (0%)
Title: Forced
Language: Ukrainian
Default: No
Forced: No

Text #4
ID: 6
Format: UTF-8
Codec ID: S_TEXT/UTF8
Codec ID/Info: UTF-8 Plain Text
Duration: 1 h 54 min
Bit rate: 94 b/s
Frame rate: 0.236 FPS
Count of elements: 1626
Stream size: 79.8 KiB (0%)
Title: Full
Language: Ukrainian
Default: No
Forced: No

Text #5
ID: 7
Format: UTF-8
Codec ID: S_TEXT/UTF8
Codec ID/Info: UTF-8 Plain Text
Duration: 1 h 47 min
Bit rate: 59 b/s
Frame rate: 0.251 FPS
Count of elements: 1611
Stream size: 46.4 KiB (0%)
Title: Full
Language: English (GB)
Default: No
Forced: No

Text #6
ID: 8
Format: UTF-8
Codec ID: S_TEXT/UTF8
Codec ID/Info: UTF-8 Plain Text
Duration: 1 h 47 min
Bit rate: 68 b/s
Frame rate: 0.297 FPS
Count of elements: 1922
Stream size: 54.1 KiB (0%)
Title: SDH
Language: English (US)
Default: No
Forced: No

Text #7
ID: 9
Format: UTF-8
Codec ID: S_TEXT/UTF8
Codec ID/Info: UTF-8 Plain Text
Duration: 1 h 55 min
Bit rate: 70 b/s
Frame rate: 0.314 FPS
Count of elements: 2175
Stream size: 59.4 KiB (0%)
Title: SDH
Language: English
Default: No
Forced: No

Menu
00:00:00.000: en: Chapter 01
00:07:55.684: en: Chapter 02
00:15:51.659: en: Chapter 03
00:22:54.249: en: Chapter 04
00:27:42.620: en: Chapter 05
00:36:52.962: en: Chapter 06
00:44:36.176: en: Chapter 07
00:52:22.475: en: Chapter 08
01:00:17.575: en: Chapter 09
01:07:17.370: en: Chapter 10
01:17:02.747: en: Chapter 11
01:20:05.513: en: Chapter 12
01:28:01.740: en: Chapter 13
01:35:39.114: en: Chapter 14
01:46:37.605: en: Chapter 15
01:48:51.072: en: Chapter 16

Другие фильмы
У данной публикации пока нет комментариев.
Будь первым, оставь своё мнение в комментариях!
Информация
Посетители, находящиеся в группе Гости, не могут оставлять комментарии к данной публикации.
Самый популярный релиз недели
Донаты
Мы в соц. сетях / RSS

Лучшие релизы месяца
Лучшие SD недели
Лучшие 720p недели
Лучшие 1080p недели
Лучшие 4K недели
Вы недавно смотрели
Реклама
Последние комментарии
...

Tony1984

Вчера, 14:36

...

bolonka123

19 апреля 2024 10:05

...

Sergunka

17 апреля 2024 23:31

...

-=DoMiNo=-

17 апреля 2024 13:52

...

bolonka123

17 апреля 2024 11:43

Реклама