+13

Американский мечтатель / American Dreamer (2022) WEB-DLRip-AVC от DoMiNo & селезень | P2

Информация о фильме
Название: Американский мечтатель
Оригинальное название: American Dreamer
Год выхода: 2022
Жанр: комедия
Режиссер: Пол Дектор
Актеры: Питер Динклэйдж, Ширли Маклейн, Мэтт Диллон, Дэнни Гловер, Мишель Майлетт, Дэнни Пуди, Гэрри Чак, Кимберли Куинн, Ребекка Олсон, С. Эрнст Харт

Описание:
Доктор Фил Лодер, посредственный профессор экономики, всегда мечтал о собственном доме, но с его низкой зарплатой и двумя разводами за плечами эта мечта кажется недостижимой. Его желание становится возможным, когда одинокая вдова Астрид предлагает Филу своё обширное поместье за гроши. Однако у сделки есть подвох.

Производство: США / Dektor Film, Estuary Films, Goldenlight Films
Продолжительность: 01:38:26
Перевод: Профессиональный (двухголосый, закадровый) | ViruseProject 18 +
Субтитры: Русские (Full), Английские (Full, SDH)

Файл
Формат: Matroska
Качество: WEB-DLRip-AVC
Видео: 1024×426 at 23.976 fps, [email protected], ~1541 kbps
Аудио: AC3, 6 ch, ~448 kbps — | Русский | Американский мечтатель / American Dreamer (2022) WEB-DLRip-AVC от DoMiNo & селезень | P2
Формат субтитров: softsub (SRT)

Авторизуйтесь для получения доступа к скачиванию

Нет аккаунта? Регистрация открыта и займёт меньше минуты

Вход Регистрация

General
Unique ID: 243006037362560599286400988717777577296 (0xB6D142A9BA5ECE64E6EE6F05AC2A6550)
Complete name: I: American.Dreamer.2022.DVO.WEB-DLRip.x264.seleZen.mkv
Format: Matroska
Format version: Version 4
File size: 1.37 GiB
Duration: 1 h 38 min
Overall bit rate: 1 991 kb/s
Frame rate: 23.976 FPS
Movie name: American.Dreamer.2022.DVO.WEB-DLRip.x264.seleZen
Encoded date: 02.04.2024 08:52:29 UTC
Writing application: mkvmerge v83.0 ('Circle Of Friends') 64-bit
Writing library: libebml v1.4.5 + libmatroska v1.7.1
Cover: Yes
Attachments: cover.jpg / small_cover.jpg

Video
ID: 1
Format: AVC
Format/Info: Advanced Video Codec
Format profile: [email protected]
Format settings: CABAC / 14 Ref Frames
Format settings, CABAC: Yes
Format settings, Reference: 14 frames
Codec ID: V_MPEG4/ISO/AVC
Duration: 1 h 38 min
Bit rate: 1 541 kb/s
Width: 1 024 pixels
Height: 426 pixels
Display aspect ratio: 2.40:1
Frame rate mode: Constant
Frame rate: 23.976 (24000/1001) FPS
Color space: YUV
Chroma subsampling: 4:2:0
Bit depth: 8 bits
Scan type: Progressive
Bits/(Pixel*Frame): 0.147
Stream size: 1.06 GiB (77%)
Title: -=DoMiNo=-
Writing library: x264 core 164 r3190 -DoMiNo
Encoding settings: cabac=1 / ref=14 / deblock=1:-2:-1 / analyse=0×3:0×133 / me=umh / subme=10 / psy=1 / psy_rd=1.05:0.15 / mixed_ref=1 / me_range=32 / chroma_me=1 / trellis=2 / 8×8dct=1 / cqm=0 / deadzone=21,11 / fast_pskip=0 / chroma_qp_offset=-3 / threads=13 / lookahead_threads=3 / sliced_threads=0 / nr=0 / decimate=0 / interlaced=0 / bluray_compat=0 / constrained_intra=0 / bframes=10 / b_pyramid=2 / b_adapt=2 / b_bias=0 / direct=1 / weightb=1 / open_gop=0 / weightp=2 / keyint=240 / keyint_min=23 / scenecut=40 / intra_refresh=0 / rc_lookahead=60 / rc=crf / mbtree=0 / crf=18.0 / qcomp=0.60 / qpmin=0 / qpmax=69 / qpstep=4 / vbv_maxrate=50000 / vbv_bufsize=62500 / crf_max=0.0 / nal_hrd=none / filler=0 / ip_ratio=1.40 / pb_ratio=1.30 / aq=3:0.90
Language: English
Default: Yes
Forced: No
Color range: Limited
Color primaries: BT.709
Transfer characteristics: BT.709
Matrix coefficients: BT.709

Audio
ID: 2
Format: AC-3
Format/Info: Audio Coding 3
Commercial name: Dolby Digital
Codec ID: A_AC3
Duration: 1 h 38 min
Bit rate mode: Constant
Bit rate: 448 kb/s
Channel (s): 6 channels
Channel layout: L R C LFE Ls Rs
Sampling rate: 48.0 kHz
Frame rate: 31.250 FPS (1536 SPF)
Compression mode: Lossy
Stream size: 315 MiB (23%)
Title: DVO ViruseProject
Language: Russian
Service kind: Complete Main
Default: Yes
Forced: No

Text #1
ID: 3
Format: UTF-8
Codec ID: S_TEXT/UTF8
Codec ID/Info: UTF-8 Plain Text
Duration: 1 h 34 min
Bit rate: 115 b/s
Frame rate: 0.275 FPS
Count of elements: 1566
Stream size: 80.3 KiB (0%)
Title: ViruseProject
Language: Russian
Default: No
Forced: No

Text #2
ID: 4
Format: UTF-8
Codec ID: S_TEXT/UTF8
Codec ID/Info: UTF-8 Plain Text
Duration: 1 h 35 min
Bit rate: 60 b/s
Frame rate: 0.251 FPS
Count of elements: 1440
Stream size: 42.5 KiB (0%)
Title: Full
Language: English
Default: No
Forced: No

Text #3
ID: 5
Format: UTF-8
Codec ID: S_TEXT/UTF8
Codec ID/Info: UTF-8 Plain Text
Duration: 1 h 37 min
Bit rate: 62 b/s
Frame rate: 0.273 FPS
Count of elements: 1601
Stream size: 44.6 KiB (0%)
Title: SDH
Language: English
Default: No
Forced: No

Другие фильмы
У данной публикации пока нет комментариев.
Будь первым, оставь своё мнение в комментариях!
Информация
Посетители, находящиеся в группе Гости, не могут оставлять комментарии к данной публикации.
Самый популярный релиз недели
Донаты
Мы в соц. сетях / RSS

Лучшие релизы месяца
Лучшие SD недели
Лучшие 720p недели
Лучшие 1080p недели
Лучшие 4K недели
Вы недавно смотрели
Реклама
Последние комментарии
...

Tony1984

Вчера, 14:36

...

bolonka123

19 апреля 2024 10:05

...

Sergunka

17 апреля 2024 23:31

...

-=DoMiNo=-

17 апреля 2024 13:52

...

bolonka123

17 апреля 2024 11:43

Реклама