+9

Дикое сердце / Ponyherz / Wild Heart (2023) HDRip-AVC от DoMiNo & селезень | D

Информация о фильме
Название: Дикое сердце
Оригинальное название: Ponyherz / Wild Heart
Год выхода: 2023
Жанр: Приключения, семейный
Режиссер: Маркус Дитрих
В ролях: Марта Хаберланд, Франц Фердинанд Краузе, Фелиция Труби, Йолина Амели Тринкс, Петер Ломайер, Софи Лутс, Анна Шудт, Дитер Халлерворден, Нилам Фарук, Кристоф Летковски

Описание:
Энни только что переехала в новый город, и у нее совсем нет друзей. Но вскоре она обзаводится очень необычным и верным приятелем — дикой лошадью с добрым сердцем. Связь между девочкой и животным становится очень прочной, но браконьеры крадут его. Теперь Энни должна заручиться помощью одноклассников и попытаться спасти своего друга из рук преступников.

Страна: Германия
Студия: Riva Film
Продолжительность: 01:40:15
Перевод: Профессиональный (полное дублирование) | Велес
* В русском дубляже (WEB-DL) отсутствуют несколько сцен (~90 сек.) по сравнению с Blu-ray, переведено русскими форсированными субтитрами
Субтитры: Русские (Forced), Немецкие (SDH)

Файл
Формат: Matroska
Качество: HDRip-AVC
Видео: 1024x428 at 24.000 fps, [email protected], ~1704 kbps
Аудио: AC3, 6 ch, ~384 kbps - | Русский | Дикое сердце / Ponyherz / Wild Heart (2023) HDRip-AVC от DoMiNo & селезень | D
Формат субтитров: softsub (SRT)

Авторизуйтесь для получения доступа к скачиванию

Нет аккаунта? Регистрация открыта и займёт меньше минуты

Вход Регистрация

General
Unique ID: 171675247009071768945636888491127428015 (0×8127732C2764516D59399D9BAA5353AF)
Complete name: I: Ponyherz.2023.DUB.HDRip.x264.seleZen.mkv
Format: Matroska
Format version: Version 4
File size: 1.46 GiB
Duration: 1 h 40 min
Overall bit rate: 2 087 kb/s
Frame rate: 24.000 FPS
Movie name: Ponyherz.2023.DUB.HDRip.x264.seleZen
Encoded date: 02.04.2024 18:19:01 UTC
Writing application: mkvmerge v83.0 ('Circle Of Friends') 64-bit
Writing library: libebml v1.4.5 + libmatroska v1.7.1
Cover: Yes
Attachments: cover.jpg / small_cover.jpg

Video
ID: 1
Format: AVC
Format/Info: Advanced Video Codec
Format profile: [email protected]
Format settings: CABAC / 14 Ref Frames
Format settings, CABAC: Yes
Format settings, Reference: 14 frames
Codec ID: V_MPEG4/ISO/AVC
Duration: 1 h 40 min
Bit rate: 1 704 kb/s
Width: 1 024 pixels
Height: 428 pixels
Display aspect ratio: 2.40:1
Frame rate mode: Constant
Frame rate: 24.000 FPS
Color space: YUV
Chroma subsampling: 4:2:0
Bit depth: 8 bits
Scan type: Progressive
Bits/(Pixel*Frame): 0.162
Stream size: 1.19 GiB (82%)
Title: -=DoMiNo=-
Writing library: x264 core 164 r3190 -DoMiNo
Encoding settings: cabac=1 / ref=14 / deblock=1:-2:-2 / analyse=0×3:0×133 / me=umh / subme=10 / psy=1 / psy_rd=1.03:0.05 / mixed_ref=1 / me_range=32 / chroma_me=1 / trellis=2 / 8×8dct=1 / cqm=0 / deadzone=21,11 / fast_pskip=0 / chroma_qp_offset=-3 / threads=13 / lookahead_threads=3 / sliced_threads=0 / nr=0 / decimate=0 / interlaced=0 / bluray_compat=0 / constrained_intra=0 / bframes=10 / b_pyramid=2 / b_adapt=2 / b_bias=0 / direct=3 / weightb=1 / open_gop=0 / weightp=2 / keyint=240 / keyint_min=24 / scenecut=40 / intra_refresh=0 / rc_lookahead=60 / rc=2pass / mbtree=0 / bitrate=1704 / ratetol=1.0 / qcomp=0.70 / qpmin=0 / qpmax=69 / qpstep=4 / cplxblur=20.0 / qblur=0.5 / vbv_maxrate=50000 / vbv_bufsize=62500 / nal_hrd=none / filler=0 / ip_ratio=1.18 / pb_ratio=1.38 / aq=3:0.80
Language: English
Default: Yes
Forced: No
Color range: Limited
Color primaries: BT.709
Transfer characteristics: BT.709
Matrix coefficients: BT.709

Audio
ID: 2
Format: AC-3
Format/Info: Audio Coding 3
Commercial name: Dolby Digital
Codec ID: A_AC3
Duration: 1 h 40 min
Bit rate mode: Constant
Bit rate: 384 kb/s
Channel (s): 6 channels
Channel layout: L R C LFE Ls Rs
Sampling rate: 48.0 kHz
Frame rate: 31.250 FPS (1536 SPF)
Compression mode: Lossy
Stream size: 275 MiB (18%)
Title: DUB -Велес
Language: Russian
Service kind: Complete Main
Default: Yes
Forced: No

Text #1
ID: 3
Format: UTF-8
Codec ID: S_TEXT/UTF8
Codec ID/Info: UTF-8 Plain Text
Duration: 26 min 16 s
Bit rate: 8 b/s
Frame rate: 0.015 FPS
Count of elements: 23
Stream size: 1.56 KiB (0%)
Title: Forced
Language: Russian
Default: No
Forced: No

Text #2
ID: 4
Format: UTF-8
Codec ID: S_TEXT/UTF8
Codec ID/Info: UTF-8 Plain Text
Duration: 1 h 31 min
Bit rate: 54 b/s
Frame rate: 0.229 FPS
Count of elements: 1259
Stream size: 36.4 KiB (0%)
Title: SDH
Language: German
Default: No
Forced: No

Menu
00:00:00.000: Chapter 01
00:07:58.083: Chapter 02
00:15:12.167: Chapter 03
00:22:28.875: Chapter 04
00:31:22.000: Chapter 05
00:38:42.042: Chapter 06
00:45:47.667: Chapter 07
00:51:43.833: Chapter 08
00:59:21.333: Chapter 09
01:06:57.917: Chapter 10
01:16:14.292: Chapter 11
01:21:58.500: Chapter 12
01:32:25.625: Chapter 13

Другие фильмы
У данной публикации пока нет комментариев.
Будь первым, оставь своё мнение в комментариях!
Информация
Посетители, находящиеся в группе Гости, не могут оставлять комментарии к данной публикации.
Самый популярный релиз недели
Донаты
Мы в соц. сетях / RSS

Лучшие релизы месяца
Лучшие SD недели
Лучшие 720p недели
Лучшие 1080p недели
Лучшие 4K недели
Вы недавно смотрели
Реклама
Последние комментарии
...

Tony1984

Вчера, 14:36

...

bolonka123

19 апреля 2024 10:05

...

Sergunka

17 апреля 2024 23:31

...

-=DoMiNo=-

17 апреля 2024 13:52

...

bolonka123

17 апреля 2024 11:43

Реклама