+21

Шугар / Sugar [01x01-08 из 08] (2024) WEB-DLRip-AVC от DoMiNo & селезень | HDRezka Studio

Информация о сериале
Название: Шугар
Оригинальное название: Sugar
Год выхода: 2024
Жанр: Триллер, драма, криминал, детектив
Режиссер: Фернанду Мейреллиш, Адам Аркин
В ролях: Колин Фаррелл, Кирби Хауэлл-Батист, Эми Райан, Деннис Буцикарис, Нэйт Корддри, Алекс Эрнандес, Джеймс Кромуэлл, Анна Ганн, Масси Фурлан, Эрик Ланж

О сериале:
История разворачивается в Лос-Анджелесе. Главный герой, Джон Шугар, работает частным детективом. Ему предстоит расследовать загадочное исчезновение любимой внучки знаменитого голливудского продюсера. Вместе с этим мужчине приходится вести борьбу со своими собственными демонами.

Страна: США
Студия: Apple Studios, Apple TV+, Genre Films
Продолжительность: ~00:45:00 серия
Перевод: Профессиональный (многоголосый, закадровый) | HDRezka Studio
Субтитры: Русские (Forced, Full), английские

Файл
Формат: Matroska
Качество: WEB-DLRip-AVC
Видео: 1024x576 at 23.976 fps, [email protected], ~1800 kbps
Аудио: AAC, 2 ch, ~128 kbps - | Русский | Шугар / Sugar [01x01-08 из 08] (2024) WEB-DLRip-AVC от DoMiNo & селезень | HDRezka Studio
Формат субтитров: softsub (SRT)

Авторизуйтесь для получения доступа к скачиванию

Нет аккаунта? Регистрация открыта и займёт меньше минуты

Вход Регистрация

x264 [info]: frame I: 645 Avg QP: 14.52 size: 55396
x264 [info]: frame P: 16463 Avg QP: 16.95 size: 21070
x264 [info]: frame B: 53553 Avg QP: 18.51 size: 5225

General
Unique ID: 14644704249540845096527396720431634338 (0xB0477AA6A711FAB3667C6B9C0A897A2)
Complete name: E: Sugar.S01.2024.WEB-DLRip.x264.seleZenSugar.S01E01.WEB-DLRip.x264.seleZen.mkv
Format: Matroska
Format version: Version 4
File size: 677 MiB
Duration: 49 min 7 s
Overall bit rate: 1 926 kb/s
Frame rate: 23.976 FPS
Movie name: Sugar.S01E01.WEB-DLRip.x264.seleZen
Encoded date: 06.04.2024 07:53:47 UTC
Writing application: mkvmerge v83.0 ('Circle Of Friends') 64-bit
Writing library: libebml v1.4.5 + libmatroska v1.7.1
Cover: Yes
Attachments: cover.jpg / small_cover.jpg

Video
ID: 1
Format: AVC
Format/Info: Advanced Video Codec
Format profile: [email protected]
Format settings: CABAC / 10 Ref Frames
Format settings, CABAC: Yes
Format settings, Reference: 10 frames
Codec ID: V_MPEG4/ISO/AVC
Duration: 49 min 7 s
Bit rate: 1 800 kb/s
Width: 1 024 pixels
Height: 576 pixels
Display aspect ratio: 16:9
Frame rate mode: Constant
Frame rate: 23.976 (24000/1001) FPS
Color space: YUV
Chroma subsampling: 4:2:0
Bit depth: 8 bits
Scan type: Progressive
Bits/(Pixel*Frame): 0.127
Stream size: 632 MiB (93%)
Title: -=DoMiNo=-
Writing library: x264 core 164 r3190 -DoMiNo
Encoding settings: cabac=1 / ref=10 / deblock=1:-2:-1 / analyse=0×3:0×133 / me=umh / subme=10 / psy=1 / psy_rd=1.00:0.15 / mixed_ref=1 / me_range=32 / chroma_me=1 / trellis=2 / 8×8dct=1 / cqm=0 / deadzone=21,11 / fast_pskip=0 / chroma_qp_offset=-3 / threads=18 / lookahead_threads=4 / sliced_threads=0 / nr=0 / decimate=0 / interlaced=0 / bluray_compat=0 / constrained_intra=0 / bframes=10 / b_pyramid=2 / b_adapt=2 / b_bias=0 / direct=3 / weightb=1 / open_gop=0 / weightp=2 / keyint=240 / keyint_min=23 / scenecut=40 / intra_refresh=0 / rc_lookahead=60 / rc=2pass / mbtree=0 / bitrate=1800 / ratetol=1.0 / qcomp=0.60 / qpmin=0 / qpmax=69 / qpstep=4 / cplxblur=20.0 / qblur=0.5 / vbv_maxrate=50000 / vbv_bufsize=62500 / nal_hrd=none / filler=0 / ip_ratio=1.20 / pb_ratio=1.30 / aq=3:0.90
Language: English
Default: Yes
Forced: No
Color range: Limited
Color primaries: BT.709
Transfer characteristics: BT.709
Matrix coefficients: BT.709

Audio
ID: 2
Format: AAC LC
Format/Info: Advanced Audio Codec Low Complexity
Codec ID: A_AAC-2
Duration: 49 min 7 s
Bit rate: 125 kb/s
Channel (s): 2 channels
Channel layout: L R
Sampling rate: 48.0 kHz
Frame rate: 46.875 FPS (1024 SPF)
Compression mode: Lossy
Stream size: 44.0 MiB (7%)
Title: HDRezka Studio
Language: Russian
Default: Yes
Forced: No

Text #1
ID: 3
Format: UTF-8
Codec ID: S_TEXT/UTF8
Codec ID/Info: UTF-8 Plain Text
Duration: 43 min 0 s
Bit rate: 7 b/s
Frame rate: 0.026 FPS
Count of elements: 68
Stream size: 2.31 KiB (0%)
Title: Russian [Forced]
Language: Russian
Default: No
Forced: No

Text #2
ID: 4
Format: UTF-8
Codec ID: S_TEXT/UTF8
Codec ID/Info: UTF-8 Plain Text
Duration: 47 min 50 s
Bit rate: 96 b/s
Frame rate: 0.222 FPS
Count of elements: 636
Stream size: 33.8 KiB (0%)
Title: Russian [Full]
Language: Russian
Default: No
Forced: No

Text #3
ID: 5
Format: UTF-8
Codec ID: S_TEXT/UTF8
Codec ID/Info: UTF-8 Plain Text
Duration: 41 min 10 s
Bit rate: 2 b/s
Frame rate: 0.011 FPS
Count of elements: 28
Stream size: 739 Bytes (0%)
Title: English [Forced]
Language: English
Default: No
Forced: No

Text #4
ID: 6
Format: UTF-8
Codec ID: S_TEXT/UTF8
Codec ID/Info: UTF-8 Plain Text
Duration: 46 min 1 s
Bit rate: 63 b/s
Frame rate: 0.222 FPS
Count of elements: 613
Stream size: 21.6 KiB (0%)
Title: English
Language: English
Default: No
Forced: No

Text #5
ID: 7
Format: UTF-8
Codec ID: S_TEXT/UTF8
Codec ID/Info: UTF-8 Plain Text
Duration: 46 min 37 s
Bit rate: 73 b/s
Frame rate: 0.249 FPS
Count of elements: 696
Stream size: 25.0 KiB (0%)
Title: English [SDH]
Language: English
Default: No
Forced: No

Другие фильмы
У данной публикации пока нет комментариев.
Будь первым, оставь своё мнение в комментариях!
Информация
Посетители, находящиеся в группе Гости, не могут оставлять комментарии к данной публикации.
Самый популярный релиз недели
Донаты
Мы в соц. сетях / RSS

Лучшие релизы месяца
Лучшие SD недели
Лучшие 720p недели
Лучшие 1080p недели
Лучшие 4K недели
Вы недавно смотрели
Реклама
Последние комментарии
...

rmzshka

15 мая 2024 13:43

...

Andrey_Vladimirovich

13 мая 2024 18:12

...

Robot

13 мая 2024 16:53

...

rmzshka

13 мая 2024 16:21

...

supermehanik

13 мая 2024 02:03

Реклама