+4

От всего сердца / One from the Heart (1981) UHD BDRemux 2160p от селезень | 4K | HDR | Dolby Vision Profile 8 | P2 | Театральная версия

Информация о фильме
Название: От всего сердца
Оригинальное название: One from the Heart
Год выхода: 1981
Жанр: мюзикл, драма, мелодрама
Режиссер: Фрэнсис Форд Коппола
В ролях: Фредерик Форрест, Тери Гарр, Рауль Хулиа, Настасья Кински, Лэйни Казан, Гарри Дин Стэнтон, Аллен Гарфилд, Джеф Хэмлин, Италия Коппола, Кармине Коппола

О фильме: В отношениях Хэнка и Фрэнни, которые вместе уже пять лет, наступает кризис. В Лас-Вегасе каждый из них встречает свою новую любовь.

Страна: США
Студия: Zoetrope Studios
Продолжительность: 01:43:27
Перевод: Профессиональный двухголосый | НТВ+

Качество: BDRemux 2160p
Видео: 3840x2160 at 23.976 fps, MPEG-H HEVC HDR Video, 89300 kbps avg
Аудио #01: 48 kHz, AC3, 2.0, 192 Kbps | Профессиональный двухголосый | НТВ+ | RUS |От всего сердца / One from the Heart (1981) UHD BDRemux 2160p от селезень | 4K | HDR | Dolby Vision Profile 8 | P2 | Театральная версия
Аудио #02: 48 kHz, DTS-HD MA, 5.1, 3835 Kbps | Оригинал | ENG |
Субтитры: Английские

От всего сердца / One from the Heart (1981) UHD BDRemux 2160p от селезень | 4K | HDR | Dolby Vision Profile 8 | P2 | Театральная версия

Авторизуйтесь для получения доступа к скачиванию

Нет аккаунта? Регистрация открыта и займёт меньше минуты

Вход Регистрация

General
Unique ID : 253749327906515577759605502757006527017 (0xBEE657C82F56A29D30F1160E6900CA29)
Complete name : H:\VideoH\One.from.the.Heart.1981.BDREMUX.2160p.HDR.DVP8.seleZen.mkv
Format : Matroska
Format version : Version 4
File size : 67.5 GiB
Duration : 1 h 43 min
Overall bit rate mode : Variable
Overall bit rate : 93.4 Mb/s
Frame rate : 23.976 FPS
Movie name : One.from.the.Heart.1981.from.seleZen
Encoded date : 2024-04-08 22:14:54 UTC
Writing application : mkvmerge v80.0 ('Roundabout') 64-bit
Writing library : libebml v1.4.4 + libmatroska v1.7.1

Video
ID : 1
ID in the original source m : 4117 (0x1015)
Format : HEVC
Format/Info : High Efficiency Video Coding
Format profile : Main [email protected]@High
HDR format : Dolby Vision, Version 1.0, dvhe.08.06, BL+RPU, Blu-ray compatible / SMPTE ST 2086, HDR10 compatible
Codec ID : V_MPEGH/ISO/HEVC
Duration : 1 h 43 min
Bit rate : 89.3 Mb/s
Width : 3 840 pixels
Height : 2 160 pixels
Display aspect ratio : 16:9
Frame rate mode : Constant
Frame rate : 23.976 (24000/1001) FPS
Color space : YUV
Chroma subsampling : 4:2:0 (Type 2)
Bit depth : 10 bits
Bits/(Pixel*Frame) : 0.449
Stream size : 64.6 GiB (96%)
Language : English
Default : No
Forced : No
Color range : Limited
Color primaries : BT.2020
Transfer characteristics : PQ
Matrix coefficients : BT.2020 non-constant
Mastering display color pri : Display P3
Mastering display luminance : min: 0.0050 cd/m2, max: 4000 cd/m2
Maximum Content Light Level : 974 cd/m2
Maximum Frame-Average Light : 62 cd/m2
Original source medium : Blu-ray

Audio #1
ID : 2
Format : AC-3
Format/Info : Audio Coding 3
Commercial name : Dolby Digital
Codec ID : A_AC3
Duration : 1 h 43 min
Bit rate mode : Constant
Bit rate : 192 kb/s
Channel(s) : 2 channels
Channel layout : L R
Sampling rate : 48.0 kHz
Frame rate : 31.250 FPS (1536 SPF)
Compression mode : Lossy
Stream size : 142 MiB (0%)
Title : DVO_NTV+
Language : Russian
Service kind : Complete Main
Default : Yes
Forced : No

Audio #2
ID : 3
Format : DTS XLL
Format/Info : Digital Theater Systems
Commercial name : DTS-HD Master Audio
Codec ID : A_DTS
Duration : 1 h 43 min
Bit rate mode : Variable
Bit rate : 3 835 kb/s
Channel(s) : 6 channels
Channel layout : C L R Ls Rs LFE
Sampling rate : 48.0 kHz
Frame rate : 93.750 FPS (512 SPF)
Bit depth : 24 bits
Compression mode : Lossless
Stream size : 2.77 GiB (4%)
Language : English
Default : No
Forced : No

Text
ID : 4
Format : UTF-8
Codec ID : S_TEXT/UTF8
Codec ID/Info : UTF-8 Plain Text
Duration : 1 h 41 min
Bit rate : 62 b/s
Frame rate : 0.203 FPS
Count of elements : 1238
Stream size : 46.6 KiB (0%)
Language : English
Default : No
Forced : No

Menu
00:00:00.000 : en:Глава 01
00:08:32.721 : en:Глава 02
00:16:43.544 : en:Глава 03
00:21:31.999 : en:Глава 04
00:29:50.080 : en:Глава 05
00:37:45.513 : en:Глава 06
00:50:43.582 : en:Глава 07
01:00:48.854 : en:Глава 08
01:08:30.648 : en:Глава 09
01:17:38.404 : en:Глава 10
01:27:35.667 : en:Глава 11
01:35:43.446 : en:Глава 12

Другие фильмы
У данной публикации пока нет комментариев.
Будь первым, оставь своё мнение в комментариях!
Информация
Посетители, находящиеся в группе Гости, не могут оставлять комментарии к данной публикации.
Самый популярный релиз недели
Донаты
Мы в соц. сетях / RSS

Лучшие релизы месяца
Лучшие SD недели
Лучшие 720p недели
Лучшие 1080p недели
Лучшие 4K недели
Вы недавно смотрели
Реклама
Последние комментарии
...

Bonzo

14 июня 2024 14:52

...

rmzshka

13 июня 2024 17:48

...

rmzshka

13 июня 2024 12:24

...

LisNick

13 июня 2024 08:45

...

SkySpirit

8 июня 2024 19:54

Реклама