+5

Куигли в Австралии / Quigley Down Under (1990) UHD BDRemux 2160p от селезень | 4K | HDR | Dolby Vision Profile 8 | P

Информация о фильме
Название: Куигли в Австралии
Оригинальное название: Quigley Down Under
Год выхода: 1990
Жанр: боевик, драма, мелодрама, приключения, вестерн
Режиссер: Саймон Уинсер
В ролях: Том Селлек, Лора Сан Джакомо, Алан Рикман, Крис Хейвуд, Рон Хэддрик, Тони Боннер, Джером Элерс, Конор МакДермоттрой, Роджер Уорд, Бен Мендельсон

О фильме: 1860 год, Западная Австралия. Американец Мэтью Куигли нанимается по объявлению на работу к владельцу крупного ранчо англичанину Марстону. Куигли узнает, что его работа - убивать аборигенов. Но американец встает на защиту коренных жителей Австралии.

Страна: Австралия, США
Студия: Pathé Entertainment
Продолжительность: 01:59:59
Перевод: Профессиональный многоголосый | НТВ

Качество: BDRemux 2160p
Видео: 3840x2160 at 24.000 fps, MPEG-H HEVC HDR Video, 76500 kbps avg
Аудио #01: 48 kHz, AC3, 2.0, 192 Kbps | Профессиональный многоголосый | НТВ | RUS |Куигли в Австралии / Quigley Down Under (1990) UHD BDRemux 2160p от селезень | 4K | HDR | Dolby Vision Profile 8 | P
Аудио #02: 48 kHz, DTS-HD MA, 2.0, 2040 Kbps | Оригинал | ENG |
Субтитры: Русские, Английские

Куигли в Австралии / Quigley Down Under (1990) UHD BDRemux 2160p от селезень | 4K | HDR | Dolby Vision Profile 8 | P

Авторизуйтесь для получения доступа к скачиванию

Нет аккаунта? Регистрация открыта и займёт меньше минуты

Вход Регистрация

General
Unique ID : 53559926775938109244807742937060785025 (0x284B44451EDFCB39C80433F308C6BB81)
Complete name : H:\VideoH\Quigley.Down.Under.1990.BDREMUX.2160p.HDR.DVP8.seleZen.mkv
Format : Matroska
Format version : Version 4
File size : 66.0 GiB
Duration : 1 h 59 min
Overall bit rate mode : Variable
Overall bit rate : 78.8 Mb/s
Frame rate : 24.000 FPS
Movie name : Quigley.Down.Under.1990.from.seleZen
Encoded date : 2024-04-08 20:09:13 UTC
Writing application : mkvmerge v80.0 ('Roundabout') 64-bit
Writing library : libebml v1.4.4 + libmatroska v1.7.1

Video
ID : 1
ID in the original source m : 4117 (0x1015)
Format : HEVC
Format/Info : High Efficiency Video Coding
Format profile : Main [email protected]@High
HDR format : Dolby Vision, Version 1.0, dvhe.08.06, BL+RPU, Blu-ray compatible / SMPTE ST 2086, HDR10 compatible
Codec ID : V_MPEGH/ISO/HEVC
Duration : 1 h 59 min
Bit rate : 76.5 Mb/s
Width : 3 840 pixels
Height : 2 160 pixels
Display aspect ratio : 16:9
Frame rate mode : Constant
Frame rate : 24.000 FPS
Color space : YUV
Chroma subsampling : 4:2:0 (Type 2)
Bit depth : 10 bits
Bits/(Pixel*Frame) : 0.384
Time code of first frame : 00:00:00:00
Stream size : 64.1 GiB (97%)
Language : English
Default : No
Forced : No
Color range : Limited
Color primaries : BT.2020
Transfer characteristics : PQ
Matrix coefficients : BT.2020 non-constant
Mastering display color pri : Display P3
Mastering display luminance : min: 0.0001 cd/m2, max: 1000 cd/m2
Maximum Content Light Level : 1031 cd/m2
Maximum Frame-Average Light : 523 cd/m2
Original source medium : Blu-ray

Audio #1
ID : 2
Format : AC-3
Format/Info : Audio Coding 3
Commercial name : Dolby Digital
Codec ID : A_AC3
Duration : 1 h 59 min
Bit rate mode : Constant
Bit rate : 192 kb/s
Channel(s) : 2 channels
Channel layout : L R
Sampling rate : 48.0 kHz
Frame rate : 31.250 FPS (1536 SPF)
Compression mode : Lossy
Stream size : 165 MiB (0%)
Title : MVO_NTV
Language : Russian
Service kind : Complete Main
Default : Yes
Forced : No

Audio #2
ID : 3
Format : DTS XLL
Format/Info : Digital Theater Systems
Commercial name : DTS-HD Master Audio
Codec ID : A_DTS
Duration : 1 h 59 min
Bit rate mode : Variable
Bit rate : 2 040 kb/s
Channel(s) : 2 channels
Channel layout : L R
Sampling rate : 48.0 kHz
Frame rate : 93.750 FPS (512 SPF)
Bit depth : 24 bits
Compression mode : Lossless
Stream size : 1.71 GiB (3%)
Language : English
Default : No
Forced : No

Text #1
ID : 4
Format : UTF-8
Codec ID : S_TEXT/UTF8
Codec ID/Info : UTF-8 Plain Text
Duration : 1 h 53 min
Bit rate : 51 b/s
Frame rate : 0.094 FPS
Count of elements : 641
Stream size : 43.1 KiB (0%)
Language : Russian
Default : No
Forced : No

Text #2
ID : 5
Format : UTF-8
Codec ID : S_TEXT/UTF8
Codec ID/Info : UTF-8 Plain Text
Duration : 1 h 53 min
Bit rate : 35 b/s
Frame rate : 0.140 FPS
Count of elements : 959
Stream size : 29.7 KiB (0%)
Language : English
Default : No
Forced : No

Menu
00:00:00.000 : en:Глава 01
00:09:41.000 : en:Глава 02
00:22:00.708 : en:Глава 03
00:30:48.083 : en:Глава 04
00:41:35.208 : en:Глава 05
00:50:27.292 : en:Глава 06
01:02:28.625 : en:Глава 07
01:12:05.500 : en:Глава 08
01:23:16.833 : en:Глава 09
01:35:11.708 : en:Глава 10
01:42:31.625 : en:Глава 11
01:52:03.500 : en:Глава 12

Другие фильмы
У данной публикации пока нет комментариев.
Будь первым, оставь своё мнение в комментариях!
Информация
Посетители, находящиеся в группе Гости, не могут оставлять комментарии к данной публикации.
Самый популярный релиз недели
Донаты
Мы в соц. сетях / RSS

Лучшие релизы месяца
Лучшие SD недели
Лучшие 720p недели
Лучшие 1080p недели
Лучшие 4K недели
Вы недавно смотрели
Реклама
Последние комментарии
...

Bonzo

14 июня 2024 14:52

...

rmzshka

13 июня 2024 17:48

...

rmzshka

13 июня 2024 12:24

...

LisNick

13 июня 2024 08:45

...

SkySpirit

8 июня 2024 19:54

Реклама