+10

Спящие псы / Sleeping Dogs (2024) WEB-DLRip 720p от DoMiNo & селезень | D, P, P2

Информация о фильме
Название: Спящие псы
Оригинальное название: Sleeping Dogs
Год выхода: 2024
Жанр: детектив, триллер, криминал
Режиссер: Адам Купер
В ролях: Рассел Кроу, Карен Гиллан, Мартон Чокаш, Томми Флэнаган, Томас М. Райт, Гарри Гринвуд, Пачаро Мзембе, Линн Гилмартин, Паула Арунделл, Элизабет Блэкмор и др.

О фильме:
После лечения провалов в памяти бывший детектив по расследованию убийств пересматривает дело десятилетней давности, связанное с жестоким убийством профессора колледжа.

Страна: Австралия, США
Студия: Film Victoria, G2 Dispatch, Gala Media Capital, Gramercy Park Media, Highland Film Group (HFG)
Продолжительность: 01:51:34
Перевод 1: Дублированный | Мосфильм-Мастер
Перевод 2: Дублированный (неофициальный) | Soundmasters
Перевод 3: Профессиональный (многоголосый, закадровый) | Soundmasters 18+
Перевод 4: Профессиональный (двухголосый, закадровый) | ViruseProject | 18+
Субтитры: Русские (Forced, Ful), Английские (Full, SDH)

Файл
Формат: Matroska
Качество: WEB-DLRip 720p [Исх.Sleeping.Dogs.2024.2160p.AMZN.WEB-DL.DDP5.1.H.265-FLUX]
Видео: 1280x534 at 23.976 fps, [email protected], ~2974 kbps
Аудио 1: AC3, 6 ch, ~640 kbps - | Русский | Спящие псы / Sleeping Dogs (2024) WEB-DLRip 720p от DoMiNo & селезень | D, P, P2 | DUB | Мосфильм-Мастер
Аудио 2: AC3, 2 ch, ~192 kbps - | Русский | | DUB | Soundmasters
Аудио 3: AC3, 6 ch, ~384 kbps - | Русский | | MVO | Soundmasters
Аудио 4: AC3, 6 ch, ~448 kbps - | Русский | | DVO | ViruseProject
Аудио 5: AC3, 6 ch, ~448 kbps - | Английский | | Original
Формат субтитров: softsub (SRT)

Авторизуйтесь для получения доступа к скачиванию

Нет аккаунта? Регистрация открыта и займёт меньше минуты

Вход Регистрация

x264 [info]: frame I:1498 Avg QP:14.01 size: 96445
x264 [info]: frame P:32764 Avg QP:15.90 size: 35048
x264 [info]: frame B:126238 Avg QP:17.78 size: 9474

General
Unique ID : 98627641150864728095207714721923509015 (0x4A32FE2473087C34AC3745A42BFAAB17)
Complete name : T:Sleeping.Dogs.2024.WEB-DLRip.720p.x264.seleZen.mkv
Format : Matroska
Format version : Version 4
File size : 3.97 GiB
Duration : 1 h 51 min
Overall bit rate : 5 088 kb/s
Frame rate : 23.976 FPS
Movie name : Sleeping.Dogs.2024.WEB-DLRip.720p.x264.seleZen
Encoded date : 2024-05-15 12:50:59 UTC
Writing application : mkvmerge v84.0 ('Sleeper') 64-bit
Writing library : libebml v1.4.5 + libmatroska v1.7.1
Cover : Yes
Attachments : cover.jpg / small_cover.jpg

Video
ID : 1
Format : AVC
Format/Info : Advanced Video Codec
Format profile : [email protected]
Format settings : CABAC / 5 Ref Frames
Format settings, CABAC : Yes
Format settings, Reference : 5 frames
Codec ID : V_MPEG4/ISO/AVC
Duration : 1 h 51 min
Bit rate : 2 974 kb/s
Width : 1 280 pixels
Height : 534 pixels
Display aspect ratio : 2.40:1
Frame rate mode : Constant
Frame rate : 23.976 (24000/1001) FPS
Color space : YUV
Chroma subsampling : 4:2:0
Bit depth : 8 bits
Scan type : Progressive
Bits/(Pixel*Frame) : 0.181
Stream size : 2.32 GiB (58%)
Title : -=DoMiNo=-
Writing library : x264 core 164 r3190 -DoMiNo
Encoding settings : cabac=1 / ref=5 / deblock=1:-2:-1 / analyse=0x3:0x133 / me=umh / subme=10 / psy=1 / psy_rd=1.00:0.15 / mixed_ref=1 / me_range=32 / chroma_me=1 / trellis=2 / 8x8dct=1 / cqm=0 / deadzone=21,11 / fast_pskip=0 / chroma_qp_offset=-3 / threads=17 / lookahead_threads=2 / sliced_threads=0 / nr=0 / decimate=0 / interlaced=0 / bluray_compat=0 / constrained_intra=0 / bframes=9 / b_pyramid=2 / b_adapt=2 / b_bias=0 / direct=1 / weightb=1 / open_gop=0 / weightp=2 / keyint=240 / keyint_min=23 / scenecut=40 / intra_refresh=0 / rc_lookahead=60 / rc=crf / mbtree=0 / crf=18.0 / qcomp=0.60 / qpmin=0 / qpmax=69 / qpstep=4 / vbv_maxrate=50000 / vbv_bufsize=62500 / crf_max=0.0 / nal_hrd=none / filler=0 / ip_ratio=1.40 / pb_ratio=1.30 / aq=3:0.90
Language : English
Default : Yes
Forced : No
Color range : Limited
Color primaries : BT.709
Transfer characteristics : BT.709
Matrix coefficients : BT.709

Audio #1
ID : 2
Format : AC-3
Format/Info : Audio Coding 3
Commercial name : Dolby Digital
Codec ID : A_AC3
Duration : 1 h 51 min
Bit rate mode : Constant
Bit rate : 640 kb/s
Channel(s) : 6 channels
Channel layout : L R C LFE Ls Rs
Sampling rate : 48.0 kHz
Frame rate : 31.250 FPS (1536 SPF)
Compression mode : Lossy
Stream size : 510 MiB (13%)
Title : DUB (Mosfilm-Master)
Language : Russian
Service kind : Complete Main
Default : Yes
Forced : No
Dialog Normalization : -31 dB
cmixlev : -3.0 dB
surmixlev : -3 dB
dialnorm_Average : -31 dB
dialnorm_Minimum : -31 dB
dialnorm_Maximum : -31 dB

Audio #2
ID : 3
Format : AC-3
Format/Info : Audio Coding 3
Commercial name : Dolby Digital
Codec ID : A_AC3
Duration : 1 h 51 min
Bit rate mode : Constant
Bit rate : 192 kb/s
Channel(s) : 2 channels
Channel layout : L R
Sampling rate : 48.0 kHz
Frame rate : 31.250 FPS (1536 SPF)
Compression mode : Lossy
Stream size : 153 MiB (4%)
Title : DUB (Soundmasters)
Language : Russian
Service kind : Complete Main
Default : No
Forced : No
Dialog Normalization : -31 dB
dialnorm_Average : -31 dB
dialnorm_Minimum : -31 dB
dialnorm_Maximum : -31 dB

Audio #3
ID : 4
Format : AC-3
Format/Info : Audio Coding 3
Commercial name : Dolby Digital
Codec ID : A_AC3
Duration : 1 h 51 min
Bit rate mode : Constant
Bit rate : 384 kb/s
Channel(s) : 6 channels
Channel layout : L R C LFE Ls Rs
Sampling rate : 48.0 kHz
Frame rate : 31.250 FPS (1536 SPF)
Compression mode : Lossy
Stream size : 306 MiB (8%)
Title : MVO (Soundmasters) | 18+
Language : Russian
Service kind : Complete Main
Default : No
Forced : No
Dialog Normalization : -31 dB
cmixlev : -4.5 dB
surmixlev : -6 dB
dialnorm_Average : -31 dB
dialnorm_Minimum : -31 dB
dialnorm_Maximum : -31 dB

Audio #4
ID : 5
Format : AC-3
Format/Info : Audio Coding 3
Commercial name : Dolby Digital
Codec ID : A_AC3
Duration : 1 h 51 min
Bit rate mode : Constant
Bit rate : 448 kb/s
Channel(s) : 6 channels
Channel layout : L R C LFE Ls Rs
Sampling rate : 48.0 kHz
Frame rate : 31.250 FPS (1536 SPF)
Compression mode : Lossy
Stream size : 358 MiB (9%)
Title : DVO -ViruseProject
Language : Russian
Service kind : Complete Main
Default : No
Forced : No
Dialog Normalization : -31 dB
compr : -0.28 dB
cmixlev : -3.0 dB
surmixlev : -3 dB
dialnorm_Average : -31 dB
dialnorm_Minimum : -31 dB
dialnorm_Maximum : -31 dB

Audio #5
ID : 6
Format : AC-3
Format/Info : Audio Coding 3
Commercial name : Dolby Digital
Codec ID : A_AC3
Duration : 1 h 51 min
Bit rate mode : Constant
Bit rate : 448 kb/s
Channel(s) : 6 channels
Channel layout : L R C LFE Ls Rs
Sampling rate : 48.0 kHz
Frame rate : 31.250 FPS (1536 SPF)
Compression mode : Lossy
Stream size : 358 MiB (9%)
Title : Original
Language : English
Service kind : Complete Main
Default : No
Forced : No
Dialog Normalization : -31 dB
cmixlev : -4.5 dB
surmixlev : -6 dB
dialnorm_Average : -31 dB
dialnorm_Minimum : -31 dB
dialnorm_Maximum : -31 dB

Text #1
ID : 7
Format : UTF-8
Codec ID : S_TEXT/UTF8
Codec ID/Info : UTF-8 Plain Text
Duration : 1 h 33 min
Bit rate : 2 b/s
Frame rate : 0.006 FPS
Count of elements : 35
Stream size : 1.86 KiB (0%)
Title : Forced
Language : Russian
Default : No
Forced : No

Text #2
ID : 8
Format : UTF-8
Codec ID : S_TEXT/UTF8
Codec ID/Info : UTF-8 Plain Text
Duration : 1 h 40 min
Bit rate : 83 b/s
Frame rate : 0.231 FPS
Count of elements : 1400
Stream size : 61.5 KiB (0%)
Title : Full -ViruseProject
Language : Russian
Default : No
Forced : No

Text #3
ID : 9
Format : UTF-8
Codec ID : S_TEXT/UTF8
Codec ID/Info : UTF-8 Plain Text
Duration : 1 h 46 min
Bit rate : 55 b/s
Frame rate : 0.222 FPS
Count of elements : 1425
Stream size : 43.6 KiB (0%)
Language : English (US)
Default : No
Forced : No

Text #4
ID : 10
Format : UTF-8
Codec ID : S_TEXT/UTF8
Codec ID/Info : UTF-8 Plain Text
Duration : 1 h 51 min
Bit rate : 63 b/s
Frame rate : 0.264 FPS
Count of elements : 1766
Stream size : 52.1 KiB (0%)
Title : SDH
Language : English (US)
Default : No
Forced : No

Menu
00:00:00.000 : en:Scene 1
01:44:20.791 : en:End Credits

Другие фильмы
У данной публикации пока нет комментариев.
Будь первым, оставь своё мнение в комментариях!
Информация
Посетители, находящиеся в группе Гости, не могут оставлять комментарии к данной публикации.
Самый популярный релиз недели
Донаты
Мы в соц. сетях / RSS

Лучшие релизы месяца
Лучшие SD недели
Лучшие 720p недели
Лучшие 1080p недели
Лучшие 4K недели
Вы недавно смотрели
Реклама
Последние комментарии
...

rmzshka

15 мая 2024 13:43

...

Andrey_Vladimirovich

13 мая 2024 18:12

...

Robot

13 мая 2024 16:53

...

rmzshka

13 мая 2024 16:21

...

supermehanik

13 мая 2024 02:03

Реклама