+5

Не смотри туда / Don't Look Away (2023) WEB-DLRip-AVC от DoMiNo & селезень | D

Информация о фильме
Название: Не смотри туда
Оригинальное название: Don't Look Away
Год выхода: 2023
Жанр: ужасы
Режиссер: Майкл Бафаро
В ролях: Келли Бастард, Майкл Миттон, Колм Хилл, Рене Лаи, Абу Дукули, Бриттани Пилгрим, Софи Том, Джейсон Хейни, Ванесса Ностбаккен, Майкл Бафаро

О фильме:
После ужасной автомобильной аварии Фрэнки пытается убедить друзей, что произошедшее не было случайностью. Она уверена, что в аварии виновата чудовищная сущность, которая теперь преследует ее. Друзья поднимают девушку на смех, но вскоре они начинают погибать. Ужасная особенность в том, что все, кто хоть раз увидит это создание, обречен на ужасную смерть. У Фрэнки остается последняя надежда - найти того, кто знает тайну чудовища и сможет остановить череду кровавых убийств.

Страна: Канада
Студия: IndustryWorks Studios
Продолжительность: 01:22:20
Перевод: Дублированный | Leff Sound
Субтитры: Русские (Forced - хардсаб, Full)

Файл
Формат: Matroska
Качество: WEB-DLRip-AVC
Видео: 1024x428 at 24.000 fps, [email protected], ~1571 kbps
Аудио: AC3, 6 ch, ~384 kbps - | Русский | Не смотри туда / Don't Look Away (2023) WEB-DLRip-AVC от DoMiNo & селезень | D
Формат субтитров: softsub (SRT)

Авторизуйтесь для получения доступа к скачиванию

Нет аккаунта? Регистрация открыта и займёт меньше минуты

Вход Регистрация

x264 [info]: frame I:1011 Avg QP:12.09 size: 37237
x264 [info]: frame P:23922 Avg QP:13.63 size: 17785
x264 [info]: frame B:93651 Avg QP:15.59 size: 5414

General
Unique ID : 235747595502371446175083459202727895872 (0xB15B55D977830140D7153A5D2EF16340)
Complete name : I:Dont.Look.Away.2023.DUB.WEB-DLRip.x264.seleZen.mkv
Format : Matroska
Format version : Version 4
File size : 1.13 GiB
Duration : 1 h 22 min
Overall bit rate : 1 955 kb/s
Frame rate : 24.000 FPS
Movie name : Dont.Look.Away.2023.DUB.WEB-DLRip.x264.seleZen
Encoded date : 2024-04-12 12:33:26 UTC
Writing application : mkvmerge v83.0 ('Circle Of Friends') 64-bit
Writing library : libebml v1.4.5 + libmatroska v1.7.1
Cover : Yes
Attachments : cover.jpg / small_cover.jpg

Video
ID : 1
Format : AVC
Format/Info : Advanced Video Codec
Format profile : [email protected]
Format settings : CABAC / 14 Ref Frames
Format settings, CABAC : Yes
Format settings, Reference : 14 frames
Codec ID : V_MPEG4/ISO/AVC
Duration : 1 h 22 min
Bit rate : 1 571 kb/s
Width : 1 024 pixels
Height : 428 pixels
Display aspect ratio : 2.39:1
Frame rate mode : Constant
Frame rate : 24.000 FPS
Color space : YUV
Chroma subsampling : 4:2:0
Bit depth : 8 bits
Scan type : Progressive
Bits/(Pixel*Frame) : 0.149
Stream size : 925 MiB (80%)
Title : -=DoMiNo=-
Writing library : x264 core 164 r3190 -DoMiNo
Encoding settings : cabac=1 / ref=14 / deblock=1:-2:-1 / analyse=0x3:0x133 / me=umh / subme=10 / psy=1 / psy_rd=1.00:0.15 / mixed_ref=1 / me_range=32 / chroma_me=1 / trellis=2 / 8x8dct=1 / cqm=0 / deadzone=21,11 / fast_pskip=0 / chroma_qp_offset=-3 / threads=13 / lookahead_threads=3 / sliced_threads=0 / nr=0 / decimate=0 / interlaced=0 / bluray_compat=0 / constrained_intra=0 / bframes=10 / b_pyramid=2 / b_adapt=2 / b_bias=0 / direct=1 / weightb=1 / open_gop=0 / weightp=2 / keyint=240 / keyint_min=24 / scenecut=40 / intra_refresh=0 / rc_lookahead=60 / rc=crf / mbtree=0 / crf=18.8 / qcomp=0.60 / qpmin=0 / qpmax=69 / qpstep=4 / vbv_maxrate=50000 / vbv_bufsize=62500 / crf_max=0.0 / nal_hrd=none / filler=0 / ip_ratio=1.40 / pb_ratio=1.30 / aq=3:0.90
Language : English
Default : Yes
Forced : No
Color range : Limited
Color primaries : BT.709
Transfer characteristics : BT.709
Matrix coefficients : BT.709

Audio
ID : 2
Format : AC-3
Format/Info : Audio Coding 3
Commercial name : Dolby Digital
Codec ID : A_AC3
Duration : 1 h 22 min
Bit rate mode : Constant
Bit rate : 384 kb/s
Channel(s) : 6 channels
Channel layout : L R C LFE Ls Rs
Sampling rate : 48.0 kHz
Frame rate : 31.250 FPS (1536 SPF)
Compression mode : Lossy
Stream size : 226 MiB (20%)
Title : Дублированный | Leff Sound
Language : Russian
Service kind : Complete Main
Default : Yes
Forced : No
AC3_metadata cmixlev : -3.0 dB
surmixlev : -6 dB

Text
ID : 3
Format : UTF-8
Codec ID : S_TEXT/UTF8
Codec ID/Info : UTF-8 Plain Text
Duration : 1 h 19 min
Bit rate : 47 b/s
Frame rate : 0.151 FPS
Count of elements : 717
Stream size : 27.3 KiB (0%)
Language : Russian
Default : No
Forced : No

Menu
00:00:00.000 : en:Chapter 01
00:05:50.000 : en:Chapter 02
00:11:40.000 : en:Chapter 03
00:17:30.000 : en:Chapter 04
00:23:20.000 : en:Chapter 05
00:29:10.000 : en:Chapter 06
00:35:00.000 : en:Chapter 07
00:40:50.000 : en:Chapter 08
00:46:40.000 : en:Chapter 09
00:52:30.000 : en:Chapter 10
00:58:20.000 : en:Chapter 11
01:04:10.000 : en:Chapter 12
01:10:00.000 : en:Chapter 13
01:15:50.000 : en:Chapter 14
01:21:40.000 : en:Chapter 15

Другие фильмы
У данной публикации пока нет комментариев.
Будь первым, оставь своё мнение в комментариях!
Информация
Посетители, находящиеся в группе Гости, не могут оставлять комментарии к данной публикации.
Самый популярный релиз недели
Донаты
Мы в соц. сетях / RSS

Лучшие релизы месяца
Лучшие SD недели
Лучшие 720p недели
Лучшие 1080p недели
Лучшие 4K недели
Вы недавно смотрели
Реклама
Последние комментарии
...

rmzshka

15 мая 2024 13:43

...

Andrey_Vladimirovich

13 мая 2024 18:12

...

Robot

13 мая 2024 16:53

...

rmzshka

13 мая 2024 16:21

...

supermehanik

13 мая 2024 02:03

Реклама