+6

Вуди Вудпекер отправляется в лагерь / Woody Woodpecker Goes to Camp (2024) WEB-DLRip 720p от DoMiNo & селезень | D

Информация о фильме
Название: Вуди Вудпекер отправляется в лагерь
Оригинальное название: Woody Woodpecker Goes to Camp
Год выпуска: 2024
Жанр: Фэнтези, комедия, приключения, семейный
Режиссер: Джонатан А. Розенбаум / Jonathan A. Rosenbaum
В ролях: Хлоя Де Лос Сантос, Кершон Теодор, Саванна Ла Рейн, Эван Стэнхоуп, Джордж Холахан-Кантвелл, Эстер Сон (II), Кушинка Джаевардене, СиСи Дьюар, Энтони Крейг, Ян Руни

О фильме:
Неугомонного дятла Вуди выгоняют из родного леса, и теперь он должен найти себе новый дом, в котором мог бы жить с комфортом. Вскоре он попадает в лагерь Ву-Ху — казалось бы, идеальное место, чтобы обосноваться. Вуди уверен, что теперь именно здесь будет его дом. Однако очень скоро выясняется, что лагерь под угрозой закрытия, и виной тому некий инспектор.

Выпущено: США, Болгария / Universal 1440 Entertainment, Cinemotion, DreamWorks Animation
Продолжительность: 01:40:13
Перевод: Профессиональный (полное дублирование) | Videofilm Ltd.
Субтитры: Русские (Forced, Full), английские

Файл
Формат: Matroska
Качество: WEB-DLRip 720p
Видео: 1280x674 at 24.000 fps, [email protected], ~2674 kbps
Аудио: AC3, 6 ch, ~640 kbps - | Русский | Вуди Вудпекер отправляется в лагерь / Woody Woodpecker Goes to Camp (2024) WEB-DLRip 720p от DoMiNo & селезень | D
Формат субтитров: softsub (SRT)

Авторизуйтесь для получения доступа к скачиванию

Нет аккаунта? Регистрация открыта и займёт меньше минуты

Вход Регистрация

General
Unique ID: 70209602848467627908669429321291588669 (0×34D1E0ADBB643FC727AFD4E36D60E43D)
Complete name: R: Woody.Woodpecker.Goes.to Camp.2024.DUB.WEB-DLRip.720p.x264.seleZen.mkv
Format: Matroska
Format version: Version 4
File size: 2.32 GiB
Duration: 1 h 40 min
Overall bit rate: 3 316 kb/s
Frame rate: 24.000 FPS
Movie name: Woody.Woodpecker.Goes.to Camp.2024.DUB.WEB-DLRip.720p.x264.seleZen
Encoded date: 13.04.2024 08:10:56 UTC
Writing application: mkvmerge v83.0 ('Circle Of Friends') 64-bit
Writing library: libebml v1.4.5 + libmatroska v1.7.1
Cover: Yes
Attachments: cover.jpg / small_cover.jpg

Video
ID: 1
Format: AVC
Format/Info: Advanced Video Codec
Format profile: [email protected]
Format settings: CABAC / 5 Ref Frames
Format settings, CABAC: Yes
Format settings, Reference: 5 frames
Codec ID: V_MPEG4/ISO/AVC
Duration: 1 h 40 min
Bit rate: 2 674 kb/s
Width: 1 280 pixels
Height: 674 pixels
Display aspect ratio: 1.899
Frame rate mode: Constant
Frame rate: 24.000 FPS
Color space: YUV
Chroma subsampling: 4:2:0
Bit depth: 8 bits
Scan type: Progressive
Bits/(Pixel*Frame): 0.129
Stream size: 1.87 GiB (81%)
Title: -=DoMiNo=-
Writing library: x264 core 164 r3190 -DoMiNo
Encoding settings: cabac=1 / ref=5 / deblock=1:0:0 / analyse=0×3:0×133 / me=umh / subme=10 / psy=1 / psy_rd=1.00:0.00 / mixed_ref=1 / me_range=32 / chroma_me=1 / trellis=2 / 8×8dct=1 / cqm=0 / deadzone=21,11 / fast_pskip=0 / chroma_qp_offset=-2 / threads=21 / lookahead_threads=5 / sliced_threads=0 / nr=0 / decimate=0 / interlaced=0 / bluray_compat=0 / constrained_intra=0 / bframes=10 / b_pyramid=2 / b_adapt=2 / b_bias=0 / direct=1 / weightb=1 / open_gop=0 / weightp=2 / keyint=240 / keyint_min=24 / scenecut=40 / intra_refresh=0 / rc_lookahead=60 / rc=crf / mbtree=0 / crf=20.0 / qcomp=0.60 / qpmin=0 / qpmax=69 / qpstep=4 / vbv_maxrate=50000 / vbv_bufsize=62500 / crf_max=0.0 / nal_hrd=none / filler=0 / ip_ratio=1.40 / pb_ratio=1.30 / aq=1:1.00
Language: English
Default: Yes
Forced: No
Color range: Limited
Color primaries: BT.709
Transfer characteristics: BT.709
Matrix coefficients: BT.709

Audio
ID: 2
Format: AC-3
Format/Info: Audio Coding 3
Commercial name: Dolby Digital
Codec ID: A_AC3
Duration: 1 h 40 min
Bit rate mode: Constant
Bit rate: 640 kb/s
Channel (s): 6 channels
Channel layout: L R C LFE Ls Rs
Sampling rate: 48.0 kHz
Frame rate: 31.250 FPS (1536 SPF)
Compression mode: Lossy
Stream size: 459 MiB (19%)
Title: Dub -Videofilm Ltd.
Language: Russian
Service kind: Complete Main
Default: Yes
Forced: No
AC3_metadata cmixlev: -3.0 dB
surmixlev: -3 dB

Text #1
ID: 3
Format: UTF-8
Codec ID: S_TEXT/UTF8
Codec ID/Info: UTF-8 Plain Text
Duration: 1 h 38 min
Bit rate: 3 b/s
Frame rate: 0.015 FPS
Count of elements: 90
Stream size: 2.84 KiB (0%)
Title: Forced
Language: Russian
Default: No
Forced: No

Text #2
ID: 4
Format: UTF-8
Codec ID: S_TEXT/UTF8
Codec ID/Info: UTF-8 Plain Text
Duration: 1 h 38 min
Bit rate: 88 b/s
Frame rate: 0.240 FPS
Count of elements: 1415
Stream size: 63.7 KiB (0%)
Title: Full
Language: Russian
Default: No
Forced: No

Text #3
ID: 5
Format: UTF-8
Codec ID: S_TEXT/UTF8
Codec ID/Info: UTF-8 Plain Text
Duration: 1 h 38 min
Bit rate: 79 b/s
Frame rate: 0.310 FPS
Count of elements: 1834
Stream size: 57.3 KiB (0%)
Title: Full
Language: English
Default: No
Forced: No

Text #4
ID: 6
Format: UTF-8
Codec ID: S_TEXT/UTF8
Codec ID/Info: UTF-8 Plain Text
Duration: 1 h 37 min
Bit rate: 67 b/s
Frame rate: 0.251 FPS
Count of elements: 1473
Stream size: 48.2 KiB (0%)
Title: SDH
Language: English
Default: No
Forced: No

Menu
00:00:00.000: en: Chapter 01
00:05:50.000: en: Chapter 02
00:11:40.000: en: Chapter 03
00:17:30.000: en: Chapter 04
00:23:20.000: en: Chapter 05
00:29:10.000: en: Chapter 06
00:35:00.000: en: Chapter 07
00:40:50.000: en: Chapter 08
00:46:40.000: en: Chapter 09
00:52:30.000: en: Chapter 10
00:58:20.000: en: Chapter 11
01:04:10.000: en: Chapter 12
01:10:00.000: en: Chapter 13
01:15:50.000: en: Chapter 14
01:21:40.000: en: Chapter 15
01:27:30.000: en: Chapter 16
01:33:20.000: en: Chapter 17
01:39:10.000: en: Chapter 18

Другие фильмы
У данной публикации пока нет комментариев.
Будь первым, оставь своё мнение в комментариях!
Информация
Посетители, находящиеся в группе Гости, не могут оставлять комментарии к данной публикации.
Самый популярный релиз недели
Донаты
Мы в соц. сетях / RSS

Лучшие релизы месяца
Лучшие SD недели
Лучшие 720p недели
Лучшие 1080p недели
Лучшие 4K недели
Вы недавно смотрели
Реклама
Последние комментарии
...

rmzshka

15 мая 2024 13:43

...

Andrey_Vladimirovich

13 мая 2024 18:12

...

Robot

13 мая 2024 16:53

...

rmzshka

13 мая 2024 16:21

...

supermehanik

13 мая 2024 02:03

Реклама