+6

Задира / Scrapper (2023) BDRip 1080p от DoMiNo & селезень | D

Информация о фильме
Название: Задира
Оригинальное название: Scrapper
Год выхода: 2023
Жанр: Драма, комедия
Режиссер: Шарлотта Риган
В ролях: Харрис Дикинсон, Лола Кэмпбелл, Алин Узун, Кэри Кренксон, Кэрис Боукетт, Амбрин Разия, Айокунле Оесанво, Аёбами Ойесабво, Аюлува Оесанво, Фрея Белл, Джессика Фостекью, Ашек Ахтар, Джошуа Фрэйтер-Лафлин, Айса Узун, Эзель Узин, Айлин Тецель, Теджал Ратхор, Оливия Брэйди

О фильме:
12-летняя Джорджи счастливо живёт одна в своей лондонской квартире, наполняя её волшебством. Однажды в её жизни появляется отец и заставляет девочку столкнуться с реальностью.

Страна: Великобритания
Студия: BBC Films, BFI, DMC Film, Great Point Media
Продолжительность: 01:23:56
Перевод: Дублированный | Pride Production
Субтитры: Русские (Forced, Full), Английские (Full, SDH)

Файл
Качество: BDRip 1080p
Формат: MKV
Видео: 1920×804, 23.976 fps, MPEG-4 AVC, ~8993 Kbps
Аудио 1: AC3, 6 ch, ~448 kbps — | Русский | Задира / Scrapper (2023) BDRip 1080p от DoMiNo & селезень | D
Аудио 2: DTS, 6 ch, ~1509 kbps — | Английский |
Формат субтитров: softsub (SRT)

Авторизуйтесь для получения доступа к скачиванию

Нет аккаунта? Регистрация открыта и займёт меньше минуты

Вход Регистрация

x264 [info]: frame I: 731 Avg QP: 14.97 size: 158849
x264 [info]: frame P: 23374 Avg QP: 16.46 size: 80917
x264 [info]: frame B: 96766 Avg QP: 18.64 size: 37760

General
Unique ID: 44825031647292555314660098661875469497 (0×21B8FCB0AB644E9C8B215AE303544CB9)
Complete name: T: Scrapper.2023.DUB.BDRip.1080p.x264.seleZen.mkv
Format: Matroska
Format version: Version 4
File size: 6.42 GiB
Duration: 1 h 23 min
Overall bit rate: 11.0 Mb/s
Frame rate: 24.000 FPS
Movie name: Scrapper.2023.DUB.BDRip.1080p.x264.seleZen
Encoded date: 13.04.2024 15:36:22 UTC
Writing application: mkvmerge v83.0 ('Circle Of Friends') 64-bit
Writing library: libebml v1.4.5 + libmatroska v1.7.1
Cover: Yes
Attachments: cover.jpg / small_cover.jpg

Video
ID: 1
Format: AVC
Format/Info: Advanced Video Codec
Format profile: [email protected]
Format settings: CABAC / 5 Ref Frames
Format settings, CABAC: Yes
Format settings, Reference: 5 frames
Codec ID: V_MPEG4/ISO/AVC
Duration: 1 h 23 min
Bit rate: 8 993 kb/s
Width: 1 920 pixels
Height: 804 pixels
Display aspect ratio: 2.39:1
Frame rate mode: Constant
Frame rate: 24.000 FPS
Color space: YUV
Chroma subsampling: 4:2:0
Bit depth: 8 bits
Scan type: Progressive
Bits/(Pixel*Frame): 0.243
Stream size: 5.27 GiB (82%)
Title: -=DoMiNo=-
Writing library: x264 core 164 r3190 -DoMiNo
Encoding settings: cabac=1 / ref=5 / deblock=1:-2:-2 / analyse=0×3:0×133 / me=umh / subme=10 / psy=1 / psy_rd=1.05:0.03 / mixed_ref=1 / me_range=32 / chroma_me=1 / trellis=2 / 8×8dct=1 / cqm=0 / deadzone=21,11 / fast_pskip=0 / chroma_qp_offset=-3 / threads=24 / lookahead_threads=6 / sliced_threads=0 / nr=0 / decimate=0 / interlaced=0 / bluray_compat=0 / constrained_intra=0 / bframes=10 / b_pyramid=2 / b_adapt=2 / b_bias=0 / direct=1 / weightb=1 / open_gop=0 / weightp=2 / keyint=240 / keyint_min=24 / scenecut=40 / intra_refresh=0 / rc_lookahead=60 / rc=crf / mbtree=0 / crf=18.0 / qcomp=0.60 / qpmin=0 / qpmax=69 / qpstep=4 / vbv_maxrate=50000 / vbv_bufsize=62500 / crf_max=0.0 / nal_hrd=none / filler=0 / ip_ratio=1.40 / pb_ratio=1.30 / aq=3:0.80
Language: English
Default: Yes
Forced: No
Color range: Limited
Color primaries: BT.709
Transfer characteristics: BT.709
Matrix coefficients: BT.709

Audio #1
ID: 2
Format: AC-3
Format/Info: Audio Coding 3
Commercial name: Dolby Digital
Codec ID: A_AC3
Duration: 1 h 23 min
Bit rate mode: Constant
Bit rate: 448 kb/s
Channel (s): 6 channels
Channel layout: L R C LFE Ls Rs
Sampling rate: 48.0 kHz
Frame rate: 31.250 FPS (1536 SPF)
Compression mode: Lossy
Stream size: 269 MiB (4%)
Title: Дублированный | Pride Production
Language: Russian
Service kind: Complete Main
Default: Yes
Forced: No
AC3_metadata cmixlev: -3.0 dB
surmixlev: -3 dB

Audio #2
ID: 3
Format: DTS
Format/Info: Digital Theater Systems
Codec ID: A_DTS
Duration: 1 h 23 min
Bit rate mode: Constant
Bit rate: 1 509 kb/s
Channel (s): 6 channels
Channel layout: C L R Ls Rs LFE
Sampling rate: 48.0 kHz
Frame rate: 93.750 FPS (512 SPF)
Bit depth: 24 bits
Compression mode: Lossy
Stream size: 906 MiB (14%)
Title: Original
Language: English
Default: No
Forced: No

Text #1
ID: 4
Format: UTF-8
Codec ID: S_TEXT/UTF8
Codec ID/Info: UTF-8 Plain Text
Duration: 1 h 11 min
Bit rate: 1 b/s
Frame rate: 0.005 FPS
Count of elements: 22
Stream size: 977 Bytes (0%)
Title: Forced
Language: Russian
Default: No
Forced: No

Text #2
ID: 5
Format: UTF-8
Codec ID: S_TEXT/UTF8
Codec ID/Info: UTF-8 Plain Text
Duration: 1 h 19 min
Bit rate: 77 b/s
Frame rate: 0.254 FPS
Count of elements: 1211
Stream size: 45.3 KiB (0%)
Title: Full
Language: Russian
Default: No
Forced: No

Text #3
ID: 6
Format: UTF-8
Codec ID: S_TEXT/UTF8
Codec ID/Info: UTF-8 Plain Text
Duration: 1 h 18 min
Bit rate: 56 b/s
Frame rate: 0.193 FPS
Count of elements: 911
Stream size: 32.4 KiB (0%)
Title: full
Language: English
Default: No
Forced: No

Text #4
ID: 7
Format: UTF-8
Codec ID: S_TEXT/UTF8
Codec ID/Info: UTF-8 Plain Text
Duration: 1 h 20 min
Bit rate: 59 b/s
Frame rate: 0.208 FPS
Count of elements: 1002
Stream size: 35.2 KiB (0%)
Title: SDH
Language: English
Default: No
Forced: No

Menu
00:00:00.000: en: Глава 01
00:07:02.833: en: Глава 02
00:15:42.000: en: Глава 03
00:26:12.542: en: Глава 04
00:35:56.208: en: Глава 05
00:43:46.333: en: Глава 06
00:50:51.083: en: Глава 07
01:03:52.750: en: Глава 08
01:12:11.292: en: Глава 09
01:18:39.708: en: Глава 10

Другие фильмы
У данной публикации пока нет комментариев.
Будь первым, оставь своё мнение в комментариях!
Информация
Посетители, находящиеся в группе Гости, не могут оставлять комментарии к данной публикации.
Самый популярный релиз недели
Донаты
Мы в соц. сетях / RSS

Лучшие релизы месяца
Лучшие SD недели
Лучшие 720p недели
Лучшие 1080p недели
Лучшие 4K недели
Вы недавно смотрели
Реклама
Последние комментарии
...

rmzshka

15 мая 2024 13:43

...

Andrey_Vladimirovich

13 мая 2024 18:12

...

Robot

13 мая 2024 16:53

...

rmzshka

13 мая 2024 16:21

...

supermehanik

13 мая 2024 02:03

Реклама