+6

Дюна: Часть вторая / Dune: Part Two (2024) UHD WEB-DL-HEVC 2160p от селезень | 4K | SDR | D, P, A

Информация о фильме
Название: Дюна: Часть вторая
Оригинальное название: Dune: Part Two
Год выхода: 2024
Жанр: фантастика, боевик, драма, приключения
Режиссер: Дени Вильнёв
В ролях: Тимоти Шаламе, Зендея, Ребекка Фергюсон, Хавьер Бардем, Джош Бролин, Остин Батлер, Флоренс Пью, Дэйв Батиста, Кристофер Уокен, Леа Сейду

О фильме: Герцог Пол Атрейдес присоединяется к фременам, чтобы стать Муад Дибом, одновременно пытаясь остановить наступление войны.

Страна: США, Канада, ОАЭ, Венгрия, Италия, Новая Зеландия, Иордания, Гамбия
Студия: Legendary Pictures, Villeneuve Films, Warner Bros., Warner Bros. Entertainment
Продолжительность: 02:46:56
Перевод(ы):
#1: Дублированный (профессиональный) | Bravo Records Georgia / Movie Dubbing
#2: Профессиональный (многоголосый, закадровый) | Jaskier
#3: Авторский (одноголосый, закадровый) | Ю.Сербин
#4: Авторский (одноголосый, закадровый) | М.Яроцкий
Субтитры: Русские (Forced, Full x3 -Official / Cool Story Blog / by stirlooo, Dark_Alice), Английские (Forced, full, SDH)

Файл
Формат: Matroska
Качество: WEB-DL (2160p)
Видео: 3840x1600 at 23.976 fps, MPEG-H HEVC SDR Video, 14900 kbps avg
Аудио 1: AC3 / 5.1 / 48 kHz / 384 kbps - | Русский (Дублированный (профессиональный) | Bravo Records Georgia / Movie Dubbing) | Дюна: Часть вторая / Dune: Part Two (2024) UHD WEB-DL-HEVC 2160p от селезень | 4K | SDR | D, P, A
Аудио 2: E-AC3 / 5.1 / 48 kHz / 384 kbps - | Русский (Дублированный (профессиональный) | Bravo Records Georgia / Movie Dubbing) |
Аудио 3: AC3 / 2.0 / 48 kHz / 192 kbps - | Русский (Профессиональный (многоголосый, закадровый) | Jaskier) |
Аудио 4: AC3 / 2.0 / 48 kHz / 192 kbps - | Русский (Авторский (одноголосый, закадровый) | Ю.Сербин) |
Аудио 5: AC3 / 2.0 / 48 kHz / 192 kbps - | Русский (Авторский (одноголосый, закадровый) | М.Яроцкий) |
Аудио 6: E-AC3+Atmos / 5.1 / 48 kHz / 768 kbps - | Английский |
Формат субтитров: softsub (SRT)

Дюна: Часть вторая / Dune: Part Two (2024) UHD WEB-DL-HEVC 2160p от селезень | 4K | SDR | D, P, A

Авторизуйтесь для получения доступа к скачиванию

Нет аккаунта? Регистрация открыта и займёт меньше минуты

Вход Регистрация

General
Unique ID : 112829972085878961485412613203889154499 (0x54E2431EA6D25F7F693782AEE486E9C3)
Complete name : H:\VideoH\3\Dune.Part.Two.2024.D.MVO.AVO.WEB-DL.2160p.SDR.seleZen.mkv
Format : Matroska
Format version : Version 4
File size : 19.8 GiB
Duration : 2 h 46 min
Overall bit rate : 17.0 Mb/s
Frame rate : 23.976 FPS
Movie name : Dune Part Two 2024 from seleZen
Encoded date : 2024-04-15 20:11:57 UTC
Writing application : mkvmerge v80.0 ('Roundabout') 64-bit
Writing library : libebml v1.4.4 + libmatroska v1.7.1

Video
ID : 1
Format : HEVC
Format/Info : High Efficiency Video Coding
Format profile : Main@L5@Main
Codec ID : V_MPEGH/ISO/HEVC
Duration : 2 h 46 min
Bit rate : 14.9 Mb/s
Width : 3 840 pixels
Height : 1 600 pixels
Display aspect ratio : 2.40:1
Frame rate mode : Constant
Frame rate : 23.976 (24000/1001) FPS
Color space : YUV
Chroma subsampling : 4:2:0
Bit depth : 8 bits
Bits/(Pixel*Frame) : 0.101
Stream size : 17.3 GiB (88%)
Language : English (US)
Default : Yes
Forced : No
Color range : Limited
Color primaries : BT.709
Transfer characteristics : BT.709
Matrix coefficients : BT.709

Audio #1
ID : 2
Format : AC-3
Format/Info : Audio Coding 3
Commercial name : Dolby Digital
Codec ID : A_AC3
Duration : 2 h 45 min
Bit rate mode : Constant
Bit rate : 384 kb/s
Channel(s) : 6 channels
Channel layout : L R C LFE Ls Rs
Sampling rate : 48.0 kHz
Frame rate : 31.250 FPS (1536 SPF)
Compression mode : Lossy
Stream size : 455 MiB (2%)
Title : Dub_Bravo Records Georgia / Movie Dubbing
Language : Russian
Service kind : Complete Main
Default : Yes
Forced : No

Audio #2
ID : 3
Format : E-AC-3
Format/Info : Enhanced AC-3
Commercial name : Dolby Digital Plus
Codec ID : A_EAC3
Duration : 2 h 45 min
Bit rate mode : Constant
Bit rate : 384 kb/s
Channel(s) : 6 channels
Channel layout : L R C LFE Ls Rs
Sampling rate : 48.0 kHz
Frame rate : 31.250 FPS (1536 SPF)
Compression mode : Lossy
Stream size : 455 MiB (2%)
Title : Dub_Bravo Records Georgia / Movie Dubbing
Language : Russian
Service kind : Complete Main
Default : No
Forced : No

Audio #3
ID : 4
Format : AC-3
Format/Info : Audio Coding 3
Commercial name : Dolby Digital
Codec ID : A_AC3
Duration : 2 h 45 min
Bit rate mode : Constant
Bit rate : 192 kb/s
Channel(s) : 2 channels
Channel layout : L R
Sampling rate : 48.0 kHz
Frame rate : 31.250 FPS (1536 SPF)
Compression mode : Lossy
Stream size : 228 MiB (1%)
Title : MVO_Jaskier
Language : Russian
Service kind : Complete Main
Default : No
Forced : No

Audio #4
ID : 5
Format : AC-3
Format/Info : Audio Coding 3
Commercial name : Dolby Digital
Codec ID : A_AC3
Duration : 2 h 45 min
Bit rate mode : Constant
Bit rate : 192 kb/s
Channel(s) : 2 channels
Channel layout : L R
Sampling rate : 48.0 kHz
Frame rate : 31.250 FPS (1536 SPF)
Compression mode : Lossy
Stream size : 228 MiB (1%)
Title : AVO_Serbin
Language : Russian
Service kind : Complete Main
Default : No
Forced : No

Audio #5
ID : 6
Format : AC-3
Format/Info : Audio Coding 3
Commercial name : Dolby Digital
Codec ID : A_AC3
Duration : 2 h 45 min
Bit rate mode : Constant
Bit rate : 192 kb/s
Channel(s) : 2 channels
Channel layout : L R
Sampling rate : 48.0 kHz
Frame rate : 31.250 FPS (1536 SPF)
Compression mode : Lossy
Stream size : 228 MiB (1%)
Title : AVO_Yarotsky
Language : Russian
Service kind : Complete Main
Default : No
Forced : No

Audio #6
ID : 7
Format : E-AC-3 JOC
Format/Info : Enhanced AC-3 with Joint Object Coding
Commercial name : Dolby Digital Plus with Dolby Atmos
Codec ID : A_EAC3
Duration : 2 h 45 min
Bit rate mode : Constant
Bit rate : 768 kb/s
Channel(s) : 6 channels
Channel layout : L R C LFE Ls Rs
Sampling rate : 48.0 kHz
Frame rate : 31.250 FPS (1536 SPF)
Compression mode : Lossy
Delay relative to video : 19 ms
Stream size : 911 MiB (4%)
Title : Original
Language : English
Service kind : Complete Main
Default : No
Forced : No
Complexity index : 16
Number of dynamic objects : 15
Bed channel count : 1 channel
Bed channel configuration : LFE

Text #1
ID : 8
Format : UTF-8
Codec ID : S_TEXT/UTF8
Codec ID/Info : UTF-8 Plain Text
Duration : 2 h 39 min
Bit rate : 7 b/s
Frame rate : 0.022 FPS
Count of elements : 214
Stream size : 8.53 KiB (0%)
Title : Forced (Off.)
Language : Russian
Default : Yes
Forced : Yes

Text #2
ID : 9
Format : UTF-8
Codec ID : S_TEXT/UTF8
Codec ID/Info : UTF-8 Plain Text
Duration : 2 h 45 min
Bit rate : 46 b/s
Frame rate : 0.134 FPS
Count of elements : 1331
Stream size : 56.4 KiB (0%)
Title : Full (Off.)
Language : Russian
Default : No
Forced : No

Text #3
ID : 10
Format : UTF-8
Codec ID : S_TEXT/UTF8
Codec ID/Info : UTF-8 Plain Text
Duration : 2 h 36 min
Bit rate : 52 b/s
Frame rate : 0.135 FPS
Count of elements : 1273
Stream size : 60.5 KiB (0%)
Title : Full (Cool Story Blog / by stirlooo)
Language : Russian
Default : No
Forced : No

Text #4
ID : 11
Format : UTF-8
Codec ID : S_TEXT/UTF8
Codec ID/Info : UTF-8 Plain Text
Duration : 2 h 36 min
Bit rate : 48 b/s
Frame rate : 0.135 FPS
Count of elements : 1273
Stream size : 55.9 KiB (0%)
Title : Full (Dark_Alice)
Language : Russian
Default : No
Forced : No

Text #5
ID : 12
Format : UTF-8
Codec ID : S_TEXT/UTF8
Codec ID/Info : UTF-8 Plain Text
Duration : 2 h 21 min
Bit rate : 4 b/s
Frame rate : 0.023 FPS
Count of elements : 196
Stream size : 5.01 KiB (0%)
Title : Forced
Language : English
Default : No
Forced : No

Text #6
ID : 13
Format : UTF-8
Codec ID : S_TEXT/UTF8
Codec ID/Info : UTF-8 Plain Text
Duration : 2 h 35 min
Bit rate : 27 b/s
Frame rate : 0.116 FPS
Count of elements : 1081
Stream size : 31.7 KiB (0%)
Title : Full
Language : English
Default : No
Forced : No

Text #7
ID : 14
Format : UTF-8
Codec ID : S_TEXT/UTF8
Codec ID/Info : UTF-8 Plain Text
Duration : 2 h 37 min
Bit rate : 41 b/s
Frame rate : 0.183 FPS
Count of elements : 1729
Stream size : 48.2 KiB (0%)
Title : SDH
Language : English
Default : No
Forced : No

Menu
00:00:00.000 : en:Chapter 01
00:09:15.221 : en:Chapter 02
00:21:29.914 : en:Chapter 03
00:29:31.021 : en:Chapter 04
00:40:08.908 : en:Chapter 05
00:50:40.915 : en:Chapter 06
01:00:34.134 : en:Chapter 07
01:09:54.527 : en:Chapter 08
01:19:40.488 : en:Chapter 09
01:30:39.939 : en:Chapter 10
01:39:06.071 : en:Chapter 11
01:49:35.867 : en:Chapter 12
01:59:40.430 : en:Chapter 13
02:10:24.616 : en:Chapter 14
02:18:50.288 : en:Chapter 15
02:24:19.242 : en:Chapter 16
02:37:45.799 : en:Chapter 17

Другие фильмы
Комментарии:

...
Tony1984 20 апреля 2024 14:36
0

Прикрепите пожалуйста дубляж red head sound к данному фильму в 4к sdr-hdr релизах на трекерах\торрентах.

Информация
Посетители, находящиеся в группе Гости, не могут оставлять комментарии к данной публикации.
Самый популярный релиз недели
Донаты
Мы в соц. сетях / RSS

Лучшие релизы месяца
Лучшие SD недели
Лучшие 720p недели
Лучшие 1080p недели
Лучшие 4K недели
Вы недавно смотрели
Реклама
Последние комментарии
...

rmzshka

15 мая 2024 13:43

...

Andrey_Vladimirovich

13 мая 2024 18:12

...

Robot

13 мая 2024 16:53

...

rmzshka

13 мая 2024 16:21

...

supermehanik

13 мая 2024 02:03

Реклама