+3

Хитмен. Последнее дело / Knox Goes Away (2023) WEB-DL 1080p от селезень | P

Информация о фильме
Название: Хитмен. Последнее дело
Оригинальное название: Knox Goes Away
Год выхода: 2023
Жанр: триллер
Режиссер: Майкл Китон
В ролях: Майкл Китон, Рэй Маккиннон, Cassie Moronez, Пол Перри, Йоанна Кулиг, Эдвин Гарсиа II, Николь Реддингер, Сьюзи Накамура, Джон Хугенэккер, Деннис Дуган

О фильме: Джон Нокс - профессиональный киллер. Его деяния лежат на душе тяжким грузом, и Нокс планирует уйти в отставку. Однако появление на пороге сына, Майлза - шокированного, в крови, умоляющего помочь ему - меняет все планы. Заручившись поддержкой старого друга Хавьера, Нокс должен разработать сложную схему и запутать преследующую их полицию, чтобы искупить вину и спасти сына, с которым не общался много лет. Ситуацию осложняет то, что у Джона диагностировали быстро развивающуюся форму деменции, и теперь счет времени идет на часы.

Страна: США
Студия: Brookstreet Pictures, Sugar23, Three Point Capital
Продолжительность: 01:54:37
Перевод: Профессиональный (многоголосый, закадровый)

Качество: WEB-DL 1080p
Видео: MPEG-4 AVC, 1920x960, 7881 Kbit/s, 23.976 fps
Аудио #01: 48 kHz, AC3, 2.0, 192 Kbps | Профессиональный (многоголосый, закадровый) | RUS |Хитмен. Последнее дело / Knox Goes Away (2023) WEB-DL 1080p от селезень | P
Аудио #02: 48 kHz, E-AC3, 5.1, 640 Kbps | Оригинал | ENG |
Субтитры: Английские

Хитмен. Последнее дело / Knox Goes Away (2023) WEB-DL 1080p от селезень | P

Авторизуйтесь для получения доступа к скачиванию

Нет аккаунта? Регистрация открыта и займёт меньше минуты

Вход Регистрация

General
Unique ID : 84247059057083156435954120551926207355 (0x3F6164B451D524B9D6C4EAECEDE2137B)
Complete name : H:\VideoH\Knox.Goes.Away.2023.AMZN.WEB-DL.1080p.seleZen.mkv
Format : Matroska
Format version : Version 4
File size : 6.98 GiB
Duration : 1 h 54 min
Overall bit rate : 8 715 kb/s
Frame rate : 23.976 FPS
Movie name : Knox.Goes.Away.2023 from seleZen
Encoded date : 2024-04-15 23:29:18 UTC
Writing application : mkvmerge v80.0 ('Roundabout') 64-bit
Writing library : libebml v1.4.4 + libmatroska v1.7.1

Video
ID : 1
Format : AVC
Format/Info : Advanced Video Codec
Format profile : High@L4
Format settings : CABAC / 4 Ref Frames
Format settings, CABAC : Yes
Format settings, Reference : 4 frames
Codec ID : V_MPEG4/ISO/AVC
Duration : 1 h 54 min
Bit rate mode : Constant
Bit rate : 7 881 kb/s
Nominal bit rate : 10 000 kb/s
Width : 1 920 pixels
Height : 960 pixels
Display aspect ratio : 2.000
Frame rate mode : Constant
Frame rate : 23.976 (24000/1001) FPS
Color space : YUV
Chroma subsampling : 4:2:0
Bit depth : 8 bits
Scan type : Progressive
Bits/(Pixel*Frame) : 0.178
Stream size : 6.31 GiB (90%)
Language : English
Default : Yes
Forced : No
Color range : Limited
Color primaries : BT.709
Transfer characteristics : BT.709
Matrix coefficients : BT.709

Audio #1
ID : 2
Format : AC-3
Format/Info : Audio Coding 3
Commercial name : Dolby Digital
Codec ID : A_AC3
Duration : 1 h 54 min
Bit rate mode : Constant
Bit rate : 192 kb/s
Channel(s) : 2 channels
Channel layout : L R
Sampling rate : 48.0 kHz
Frame rate : 31.250 FPS (1536 SPF)
Compression mode : Lossy
Stream size : 157 MiB (2%)
Title : MVO
Language : Russian
Service kind : Complete Main
Default : Yes
Forced : No

Audio #2
ID : 3
Format : E-AC-3
Format/Info : Enhanced AC-3
Commercial name : Dolby Digital Plus
Codec ID : A_EAC3
Duration : 1 h 54 min
Bit rate mode : Constant
Bit rate : 640 kb/s
Channel(s) : 6 channels
Channel layout : L R C LFE Ls Rs
Sampling rate : 48.0 kHz
Frame rate : 31.250 FPS (1536 SPF)
Compression mode : Lossy
Stream size : 525 MiB (7%)
Title : Original
Language : English
Service kind : Complete Main
Default : No
Forced : No

Text #1
ID : 4
Format : UTF-8
Codec ID : S_TEXT/UTF8
Codec ID/Info : UTF-8 Plain Text
Duration : 1 h 45 min
Bit rate : 52 b/s
Frame rate : 0.237 FPS
Count of elements : 1500
Stream size : 40.9 KiB (0%)
Language : English
Default : No
Forced : No

Text #2
ID : 5
Format : UTF-8
Codec ID : S_TEXT/UTF8
Codec ID/Info : UTF-8 Plain Text
Duration : 1 h 47 min
Bit rate : 57 b/s
Frame rate : 0.261 FPS
Count of elements : 1690
Stream size : 45.1 KiB (0%)
Title : SDH
Language : English
Default : No
Forced : No

Menu
00:00:00.000 : en:Scene 01
01:48:36.541 : en:End Credits

Другие фильмы
У данной публикации пока нет комментариев.
Будь первым, оставь своё мнение в комментариях!
Информация
Посетители, находящиеся в группе Гости, не могут оставлять комментарии к данной публикации.
Самый популярный релиз недели
Донаты
Мы в соц. сетях / RSS

Лучшие релизы месяца
Лучшие SD недели
Лучшие 720p недели
Лучшие 1080p недели
Лучшие 4K недели
Вы недавно смотрели
Реклама
Последние комментарии
...

rmzshka

15 мая 2024 13:43

...

Andrey_Vladimirovich

13 мая 2024 18:12

...

Robot

13 мая 2024 16:53

...

rmzshka

13 мая 2024 16:21

...

supermehanik

13 мая 2024 02:03

Реклама