+6

Однажды в Ла-Рое / LaRoy, Texas (2023) WEB-DL 720p от селезень | D

Информация о фильме
Название: Однажды в Ла-Рое
Оригинальное название: LaRoy, Texas
Год выхода: 2023
Жанр: триллер, комедия, криминал
Режиссер: Шейн Эткинсон
В ролях: Стив Зан, Джон Магаро, Дилан Бейкер, Галадриель Стинман, Мэттью Дель Негро, Боб Кленденин, Брэд Лелэнд, Меган Стивенсон, Эмили Пендергаст, Алекс Найт

О фильме:
Рэй живет в тихом городке Ла-Рое, трудится в семейном магазине стройматериалов и души не чает в своей жене - провинциальной королеве красоты, которая, кажется, ему не слишком верна. Узнав об измене супруги, бедолага решает свести счеты с жизнью, но его планы нарушает незнакомец, принявший скромного менеджера за наемную убийцу. Рэй в своей жизни не обидел и мухи, но гонорар за устранение местного бизнесмена выглядит слишком заманчиво.

Страна: США, Франция
Студия: Adastra Films, BCD Travel, Ellly Films, FLOTE Entertainment, NEXT Productions
Продолжительность: 01:52:20
Перевод: Дублированный | Студия «СиПиАй Филмз / CPI Films»
Субтитры: Русские (Full), Английские

Файл
Формат: Matroska
Качество: WEB-DL 720p | AMZN
Видео: 1248x520 at 23.976 fps, MPEG-4 AVC, ~3046 kbps
Аудио 1: AC3, 6 ch, ~384 kbps - | Русский | Однажды в Ла-Рое / LaRoy, Texas (2023) WEB-DL 720p от селезень | D
Аудио 2: E-AC3, 6 ch, ~384 kbps - | Русский |
Аудио 3: E-AC3, 6 ch, ~640 kbps - | Английский |
Формат субтитров: softsub (SRT)

Авторизуйтесь для получения доступа к скачиванию

Нет аккаунта? Регистрация открыта и займёт меньше минуты

Вход Регистрация

General
Unique ID : 4709233458247452693919342326646692588 (0x38AF722B348573E72D0DE0E81F5DAEC)
Complete name : S:LaRoy.Texas.2023.AMZN.WEB-DL.720p.x264.seleZen.mkv
Format : Matroska
Format version : Version 4
File size : 3.50 GiB
Duration : 1 h 52 min
Overall bit rate : 4 454 kb/s
Frame rate : 23.976 FPS
Movie name : LaRoy.Texas.2023.AMZN.WEB-DL.720p.x264.seleZen
Encoded date : 2024-04-16 08:03:29 UTC
Writing application : mkvmerge v83.0 ('Circle Of Friends') 64-bit
Writing library : libebml v1.4.5 + libmatroska v1.7.1
Cover : Yes
Attachments : cover.jpg / small_cover.jpg

Video
ID : 1
Format : AVC
Format/Info : Advanced Video Codec
Format profile : [email protected]
Format settings : CABAC / 4 Ref Frames
Format settings, CABAC : Yes
Format settings, Reference : 4 frames
Codec ID : V_MPEG4/ISO/AVC
Duration : 1 h 52 min
Bit rate mode : Constant
Bit rate : 3 046 kb/s
Nominal bit rate : 6 000 kb/s
Width : 1 248 pixels
Height : 520 pixels
Display aspect ratio : 2.40:1
Frame rate mode : Constant
Frame rate : 23.976 (24000/1001) FPS
Color space : YUV
Chroma subsampling : 4:2:0
Bit depth : 8 bits
Scan type : Progressive
Bits/(Pixel*Frame) : 0.196
Stream size : 2.39 GiB (68%)
Title : -=DoMiNo=-
Language : English
Default : Yes
Forced : No
Color range : Limited
Color primaries : BT.709
Transfer characteristics : BT.709
Matrix coefficients : BT.709

Audio #1
ID : 2
Format : AC-3
Format/Info : Audio Coding 3
Commercial name : Dolby Digital
Codec ID : A_AC3
Duration : 1 h 52 min
Bit rate mode : Constant
Bit rate : 384 kb/s
Channel(s) : 6 channels
Channel layout : L R C LFE Ls Rs
Sampling rate : 48.0 kHz
Frame rate : 31.250 FPS (1536 SPF)
Compression mode : Lossy
Stream size : 309 MiB (9%)
Title : Dub
Language : Russian
Service kind : Complete Main
Default : Yes
Forced : No
AC3_metadata cmixlev : -3.0 dB
surmixlev : -6 dB

Audio #2
ID : 3
Format : E-AC-3
Format/Info : Enhanced AC-3
Commercial name : Dolby Digital Plus
Codec ID : A_EAC3
Duration : 1 h 52 min
Bit rate mode : Constant
Bit rate : 384 kb/s
Channel(s) : 6 channels
Channel layout : L R C LFE Ls Rs
Sampling rate : 48.0 kHz
Frame rate : 31.250 FPS (1536 SPF)
Compression mode : Lossy
Stream size : 309 MiB (9%)
Title : Dub
Language : Russian
Service kind : Complete Main
Default : No
Forced : No

Audio #3
ID : 4
Format : E-AC-3
Format/Info : Enhanced AC-3
Commercial name : Dolby Digital Plus
Codec ID : A_EAC3
Duration : 1 h 52 min
Bit rate mode : Constant
Bit rate : 640 kb/s
Channel(s) : 6 channels
Channel layout : L R C LFE Ls Rs
Sampling rate : 48.0 kHz
Frame rate : 31.250 FPS (1536 SPF)
Compression mode : Lossy
Stream size : 514 MiB (14%)
Language : English
Service kind : Complete Main
Default : No
Forced : No

Text #1
ID : 5
Format : UTF-8
Codec ID : S_TEXT/UTF8
Codec ID/Info : UTF-8 Plain Text
Duration : 1 h 48 min
Bit rate : 77 b/s
Frame rate : 0.257 FPS
Count of elements : 1673
Stream size : 61.9 KiB (0%)
Title : Full
Language : Russian
Default : No
Forced : No

Text #2
ID : 6
Format : UTF-8
Codec ID : S_TEXT/UTF8
Codec ID/Info : UTF-8 Plain Text
Duration : 1 h 46 min
Bit rate : 54 b/s
Frame rate : 0.247 FPS
Count of elements : 1581
Stream size : 42.3 KiB (0%)
Language : English
Default : No
Forced : No

Text #3
ID : 7
Format : UTF-8
Codec ID : S_TEXT/UTF8
Codec ID/Info : UTF-8 Plain Text
Duration : 1 h 50 min
Bit rate : 58 b/s
Frame rate : 0.267 FPS
Count of elements : 1772
Stream size : 47.3 KiB (0%)
Title : SDH
Language : English
Default : No
Forced : No

Menu
00:00:00.000 : en:Scene 01
01:52:15.000 : en:End Credits

Другие фильмы
У данной публикации пока нет комментариев.
Будь первым, оставь своё мнение в комментариях!
Информация
Посетители, находящиеся в группе Гости, не могут оставлять комментарии к данной публикации.
Самый популярный релиз недели
Донаты
Мы в соц. сетях / RSS

Лучшие релизы месяца
Лучшие SD недели
Лучшие 720p недели
Лучшие 1080p недели
Лучшие 4K недели
Вы недавно смотрели
Реклама
Последние комментарии
...

rmzshka

15 мая 2024 13:43

...

Andrey_Vladimirovich

13 мая 2024 18:12

...

Robot

13 мая 2024 16:53

...

rmzshka

13 мая 2024 16:21

...

supermehanik

13 мая 2024 02:03

Реклама