+16

Маяк 23 / Beacon 23 [02x01-08 из 08] (2024) WEB-DLRip-AVC от DoMiNo & селезень | Кравец-Рекордз

Информация о фильме
Название: Маяк 23
Оригинальное название: Beacon 23
Год выхода: 2023
Жанр: Фантастика, триллер, драма, детектив
Режиссер: Дэниэл Персивал, Левин Уэбб, Эрскин Форд
В ролях: Стефан Джеймс, Лина Хиди, Уэйд Богерт О`Брайэн, Наташа Мумба, Стивен Рут, Джесс Салгейру, Эллен Вонг, Бо Мартин, Эрик Ланж, Дэниел Малик, Каролина Бартчак, Марк Менчака, Барбара Хёрши, Рузбех Фэйрд, А.Дж. Симмонс, Сидни Озеров-Мейер и другие.

О фильме:
XXIII век. Сеть маяков по всей галактике помогает космическим шаттлам безопасно путешествовать. Бывший военный Халан и сотрудница правительства Астер оказываются заперты на маяке в самом дальнем уголке космоса и пытаются сквозь страхи и подозрения решить, кто они — друзья или враги.

Страна: США
Студия: Boat Rocker Studios, Platform One Media, Spectrum Originals
Продолжительность: ~ 00:46:19
Перевод: Профессиональный (многоголосый, закадровый) | Кравец-Рекордз - по заказу Амедиа
Субтитры: Русские (Full), Английские

Файл
Формат: Matroska
Качество: WEB-DLRip-AVC
Видео: 1024x512 at 23.976 fps, [email protected], ~1600 kbps
Аудио: AC3, 6 ch, ~384 kbps - | Русский | Маяк 23 / Beacon 23 [02x01-08 из 08] (2024) WEB-DLRip-AVC от DoMiNo & селезень | Кравец-Рекордз
Формат субтитров: softsub (SRT)
► Без Рекламы!

Авторизуйтесь для получения доступа к скачиванию

Нет аккаунта? Регистрация открыта и займёт меньше минуты

Вход Регистрация

General
Unique ID: 298286699625617173891868698050984799324 (0xE067EDBE1CE2FC16633A08199631EC5C)
Complete name: E: Beacon.23.S02.2024.WEB-DLRip.x264.seleZenBeacon.23.S02E01.WEB-DLRip.x264.seleZen.mkv
Format: Matroska
Format version: Version 4
File size: 658 MiB
Duration: 46 min 19 s
Overall bit rate: 1 986 kb/s
Frame rate: 23.976 FPS
Movie name: Beacon.23.S02E01.WEB-DLRip.x264.seleZen
Encoded date: 16.04.2024 09:27:10 UTC
Writing application: mkvmerge v83.0 ('Circle Of Friends') 64-bit
Writing library: libebml v1.4.5 + libmatroska v1.7.1
Cover: Yes
Attachments: cover.jpg / small_cover.jpg

Video
ID: 1
Format: AVC
Format/Info: Advanced Video Codec
Format profile: [email protected]
Format settings: CABAC / 10 Ref Frames
Format settings, CABAC: Yes
Format settings, Reference: 10 frames
Codec ID: V_MPEG4/ISO/AVC
Duration: 46 min 19 s
Bit rate: 1 600 kb/s
Width: 1 024 pixels
Height: 512 pixels
Display aspect ratio: 2.000
Frame rate mode: Constant
Frame rate: 23.976 (24000/1001) FPS
Color space: YUV
Chroma subsampling: 4:2:0
Bit depth: 8 bits
Scan type: Progressive
Bits/(Pixel*Frame): 0.127
Stream size: 530 MiB (81%)
Title: -=DoMiNo=-
Writing library: x264 core 164 r3190 -DoMiNo
Encoding settings: cabac=1 / ref=10 / deblock=1:-2:-1 / analyse=0×3:0×133 / me=umh / subme=10 / psy=1 / psy_rd=1.00:0.15 / mixed_ref=1 / me_range=32 / chroma_me=1 / trellis=2 / 8×8dct=1 / cqm=0 / deadzone=21,11 / fast_pskip=0 / chroma_qp_offset=-3 / threads=16 / lookahead_threads=4 / sliced_threads=0 / nr=0 / decimate=0 / interlaced=0 / bluray_compat=0 / constrained_intra=0 / bframes=10 / b_pyramid=2 / b_adapt=2 / b_bias=0 / direct=3 / weightb=1 / open_gop=0 / weightp=2 / keyint=240 / keyint_min=23 / scenecut=40 / intra_refresh=0 / rc_lookahead=60 / rc=2pass / mbtree=0 / bitrate=1600 / ratetol=1.0 / qcomp=0.60 / qpmin=0 / qpmax=69 / qpstep=4 / cplxblur=20.0 / qblur=0.5 / vbv_maxrate=50000 / vbv_bufsize=62500 / nal_hrd=none / filler=0 / ip_ratio=1.20 / pb_ratio=1.30 / aq=3:0.90
Language: English
Default: Yes
Forced: No
Color range: Limited
Color primaries: BT.709
Transfer characteristics: BT.709
Matrix coefficients: BT.709

Audio
ID: 2
Format: AC-3
Format/Info: Audio Coding 3
Commercial name: Dolby Digital
Codec ID: A_AC3
Duration: 46 min 19 s
Bit rate mode: Constant
Bit rate: 384 kb/s
Channel (s): 6 channels
Channel layout: L R C LFE Ls Rs
Sampling rate: 48.0 kHz
Frame rate: 31.250 FPS (1536 SPF)
Compression mode: Lossy
Stream size: 127 MiB (19%)
Title: MVO [Кравец-рекордз]
Language: Russian
Service kind: Complete Main
Default: Yes
Forced: No
AC3_metadata cmixlev: -3.0 dB
surmixlev: -3 dB

Text #1
ID: 3
Format: UTF-8
Codec ID: S_TEXT/UTF8
Codec ID/Info: UTF-8 Plain Text
Duration: 42 min 8 s
Bit rate: 89 b/s
Frame rate: 0.166 FPS
Count of elements: 421
Stream size: 27.6 KiB (0%)
Title: Rus
Language: Russian
Default: No
Forced: No

Text #2
ID: 4
Format: UTF-8
Codec ID: S_TEXT/UTF8
Codec ID/Info: UTF-8 Plain Text
Duration: 45 min 32 s
Bit rate: 51 b/s
Frame rate: 0.202 FPS
Count of elements: 551
Stream size: 17.1 KiB (0%)
Title: Eng
Language: English (US)
Default: No
Forced: No

Text #3
ID: 5
Format: UTF-8
Codec ID: S_TEXT/UTF8
Codec ID/Info: UTF-8 Plain Text
Duration: 45 min 32 s
Bit rate: 58 b/s
Frame rate: 0.249 FPS
Count of elements: 681
Stream size: 19.4 KiB (0%)
Title: SDH
Language: English (US)
Default: No
Forced: No

Другие фильмы
У данной публикации пока нет комментариев.
Будь первым, оставь своё мнение в комментариях!
Информация
Посетители, находящиеся в группе Гости, не могут оставлять комментарии к данной публикации.
Самый популярный релиз недели
Донаты
Мы в соц. сетях / RSS

Лучшие релизы месяца
Лучшие SD недели
Лучшие 720p недели
Лучшие 1080p недели
Лучшие 4K недели
Вы недавно смотрели
Реклама
Последние комментарии
...

Bonzo

14 июня 2024 14:52

...

rmzshka

13 июня 2024 17:48

...

rmzshka

13 июня 2024 12:24

...

LisNick

13 июня 2024 08:45

...

SkySpirit

8 июня 2024 19:54

Реклама