+8

Три мушкетёра: Миледи / Les Trois Mousquetaires: Milady / The Three Musketeers - Part II: Milady (2023) BDRip-AVC от DoMiNo & селезень | D

Информация о фильме
Название: Три мушкетёра: Миледи
Оригинальное название: Les Trois Mousquetaires: Milady / The Three Musketeers — Part II: Milady
Год выхода: 2023
Жанр: боевик, приключения, история
Режиссер: Мартен Бурбулон
В ролях: Франсуа Сивиль, Венсан Кассель, Ромен Дюрис, Пио Мармай, Ева Грин, Луи Гаррель, Вики Крипс, Лина Кудри, Джейкоб Форчун-Ллойд, Эрик Руф

О фильме:
На глазах Д’Артаньяна похищают его возлюбленную Констанцию. Пока верные друзья, три королевских мушкетёра Атос, Портос и Арамис, сражаются на поле боя, Д’Артаньян вынужден объединить усилия с таинственной Миледи, чтобы спасти свою любимую. Но страшные тайны прошлого могут разрушить как новые союзы, так и старую дружбу.

Страна: Франция, Германия, Испания, Бельгия
Студия: Chapter 2, Constantin Film, M6 Films, Pathe, Radar Films, uMedia Family
Продолжительность: 01:54:07
Перевод: Дублированный | Пифагор
Субтитры: Русские (Forced, full), английские

Файл
Формат: Matroska
Качество: BDRip-AVC [Исх.Les.trois.mousquetaires.Milady.2023.COMPLETE.FR.BLURAY-Psaro]
Видео: 1152×480 at 24.000 fps, [email protected], ~2338 kbps
Аудио: AC3, 6 ch, ~448 kbps — | Русский | Три мушкетёра: Миледи / Les Trois Mousquetaires: Milady / The Three Musketeers - Part II: Milady (2023) BDRip-AVC от DoMiNo & селезень | D
Формат субтитров: softsub (SRT)

Авторизуйтесь для получения доступа к скачиванию

Нет аккаунта? Регистрация открыта и займёт меньше минуты

Вход Регистрация

General
Unique ID: 130899855282524713700651734775276631483 (0×627A65254DB577DB6D1CC9C0D531F5BB)
Complete name: R: The.Three.Musketeers.Part.2.Milady.2023.BDRip.x264.seleZen.mkv
Format: Matroska
Format version: Version 4
File size: 2.22 GiB
Duration: 1 h 54 min
Overall bit rate: 2 788 kb/s
Frame rate: 24.000 FPS
Movie name: The.Three.Musketeers.Part.2.Milady.2023.BDRip.x264.seleZen
Encoded date: 16.04.2024 11:39:31 UTC
Writing application: mkvmerge v83.0 ('Circle Of Friends') 64-bit
Writing library: libebml v1.4.5 + libmatroska v1.7.1
Cover: Yes
Attachments: cover.jpg / small_cover.jpg

Video
ID: 1
Format: AVC
Format/Info: Advanced Video Codec
Format profile: [email protected]
Format settings: CABAC / 12 Ref Frames
Format settings, CABAC: Yes
Format settings, Reference: 12 frames
Codec ID: V_MPEG4/ISO/AVC
Duration: 1 h 54 min
Bit rate: 2 338 kb/s
Width: 1 152 pixels
Height: 480 pixels
Display aspect ratio: 2.40:1
Frame rate mode: Constant
Frame rate: 24.000 FPS
Color space: YUV
Chroma subsampling: 4:2:0
Bit depth: 8 bits
Scan type: Progressive
Bits/(Pixel*Frame): 0.176
Stream size: 1.86 GiB (84%)
Title: -=DoMiNo=-
Writing library: x264 core 164 r3190 -DoMiNo
Encoding settings: cabac=1 / ref=12 / deblock=1:-2:-2 / analyse=0×3:0×133 / me=umh / subme=10 / psy=1 / psy_rd=1.05:0.05 / mixed_ref=1 / me_range=32 / chroma_me=1 / trellis=2 / 8×8dct=1 / cqm=0 / deadzone=21,11 / fast_pskip=0 / chroma_qp_offset=-3 / threads=15 / lookahead_threads=3 / sliced_threads=0 / nr=0 / decimate=0 / interlaced=0 / bluray_compat=0 / constrained_intra=0 / bframes=12 / b_pyramid=2 / b_adapt=2 / b_bias=0 / direct=1 / weightb=1 / open_gop=0 / weightp=2 / keyint=240 / keyint_min=24 / scenecut=40 / intra_refresh=0 / rc_lookahead=60 / rc=crf / mbtree=0 / crf=18.8 / qcomp=0.60 / qpmin=0 / qpmax=69 / qpstep=4 / vbv_maxrate=50000 / vbv_bufsize=62500 / crf_max=0.0 / nal_hrd=none / filler=0 / ip_ratio=1.35 / pb_ratio=1.30 / aq=3:0.80
Language: English
Default: Yes
Forced: No
Color range: Limited
Color primaries: BT.709
Transfer characteristics: BT.709
Matrix coefficients: BT.709

Audio
ID: 2
Format: AC-3
Format/Info: Audio Coding 3
Commercial name: Dolby Digital
Codec ID: A_AC3
Duration: 1 h 54 min
Bit rate mode: Constant
Bit rate: 448 kb/s
Channel (s): 6 channels
Channel layout: L R C LFE Ls Rs
Sampling rate: 48.0 kHz
Frame rate: 31.250 FPS (1536 SPF)
Compression mode: Lossy
Stream size: 366 MiB (16%)
Title: Дублированный | Пифагор
Language: Russian
Service kind: Complete Main
Default: Yes
Forced: No
AC3_metadata cmixlev: -3.0 dB
surmixlev: -3 dB

Text #1
ID: 3
Format: UTF-8
Codec ID: S_TEXT/UTF8
Codec ID/Info: UTF-8 Plain Text
Duration: 1 h 39 min
Bit rate: 2 b/s
Frame rate: 0.002 FPS
Count of elements: 13
Stream size: 1.55 KiB (0%)
Title: Forced
Language: Russian
Default: No
Forced: No

Text #2
ID: 4
Format: UTF-8
Codec ID: S_TEXT/UTF8
Codec ID/Info: UTF-8 Plain Text
Duration: 1 h 46 min
Bit rate: 69 b/s
Frame rate: 0.158 FPS
Count of elements: 1011
Stream size: 54.2 KiB (0%)
Title: Full
Language: Russian
Default: No
Forced: No

Text #3
ID: 5
Format: UTF-8
Codec ID: S_TEXT/UTF8
Codec ID/Info: UTF-8 Plain Text
Duration: 1 h 46 min
Bit rate: 43 b/s
Frame rate: 0.158 FPS
Count of elements: 1011
Stream size: 34.0 KiB (0%)
Title: Full
Language: English
Default: No
Forced: No

Menu
00:00:00.000: Глава 1
00:05:15.583: Глава 2
00:18:42.583: Глава 3
00:28:23.500: Глава 4
00:34:51.458: Глава 5
00:42:45.375: Глава 6
00:54:35.625: Глава 7
01:09:05.750: Глава 8
01:21:05.041: Глава 9
01:29:28.708: Глава 10
01:40:25.333: Глава 11
01:48:22.166: Глава 12
01:54:07.958: Глава 13

Другие фильмы
У данной публикации пока нет комментариев.
Будь первым, оставь своё мнение в комментариях!
Информация
Посетители, находящиеся в группе Гости, не могут оставлять комментарии к данной публикации.
Самый популярный релиз недели
Донаты
Мы в соц. сетях / RSS

Лучшие релизы месяца
Лучшие SD недели
Лучшие 720p недели
Лучшие 1080p недели
Лучшие 4K недели
Вы недавно смотрели
Реклама
Последние комментарии
...

rmzshka

15 мая 2024 13:43

...

Andrey_Vladimirovich

13 мая 2024 18:12

...

Robot

13 мая 2024 16:53

...

rmzshka

13 мая 2024 16:21

...

supermehanik

13 мая 2024 02:03

Реклама