+9

Задира / Scrapper (2023) BDRip от DoMiNo & селезень | D

Информация о фильме
Название: Задира
Оригинальное название: Scrapper
Год выхода: 2023
Жанр: Драма, комедия
Режиссер: Шарлотта Риган
В ролях: Харрис Дикинсон, Лола Кэмпбелл, Алин Узун, Кэри Кренксон, Кэрис Боукетт, Амбрин Разия, Айокунле Оесанво, Аёбами Ойесабво, Аюлува Оесанво, Фрея Белл, Джессика Фостекью, Ашек Ахтар, Джошуа Фрэйтер-Лафлин, Айса Узун, Эзель Узин, Айлин Тецель, Теджал Ратхор, Оливия Брэйди

О фильме:
12-летняя Джорджи счастливо живёт одна в своей лондонской квартире, наполняя её волшебством. Однажды в её жизни появляется отец и заставляет девочку столкнуться с реальностью.

Страна: Великобритания
Студия: BBC Films, BFI, DMC Film, Great Point Media
Продолжительность: 01:23:56
Перевод: Дублированный | Pride Production

Файл
Формат: AVI
Качество: BDRip [Исх.Scrapper 2023BDRemux]
Видео: 720x304 at 24.000 fps, XviD 69, ~1868 kbps
Аудио: AC3, 6 ch, ~448 kbps - | Русский | Задира / Scrapper (2023) BDRip от DoMiNo & селезень | D
Субтитры: Нет

Авторизуйтесь для получения доступа к скачиванию

Нет аккаунта? Регистрация открыта и займёт меньше минуты

Вход Регистрация

General
Complete name: I: Scrapper.2023.DUB.BDRip.seleZen.avi
Format: AVI
Format/Info: Audio Video Interleave
Format settings: BitmapInfoHeader / WaveFormatEx
File size: 1.36 GiB
Duration: 1 h 23 min
Overall bit rate: 2 323 kb/s
Frame rate: 24.000 FPS
Movie name: Scrapper.2023.DUB.BDRip.seleZen
Writing application: VirtualDubModRus 1.5.10.2 (build 2542/release)
Writing library: VirtualDubMod build 2542/release
Copyright: -=DoMiNo=-

Video
ID: 0
Format: MPEG-4 Visual
Format profile: Advanced Simple@L5
Format settings: BVOP1 / Custom Matrix
Format settings, BVOP: 1
Format settings, QPel: No
Format settings, GMC: No warppoints
Format settings, Matrix: Custom
Codec ID: XVID
Codec ID/Hint: XviD
Duration: 1 h 23 min
Bit rate: 1 868 kb/s
Width: 720 pixels
Height: 304 pixels
Display aspect ratio: 2.39:1
Frame rate: 24.000 FPS
Color space: YUV
Chroma subsampling: 4:2:0
Bit depth: 8 bits
Scan type: Progressive
Compression mode: Lossy
Bits/(Pixel*Frame): 0.356
Stream size: 1.10 GiB (80%)
Writing library: XviD 69

Audio
ID: 1
Format: AC-3
Format/Info: Audio Coding 3
Commercial name: Dolby Digital
Codec ID: 2000
Duration: 1 h 23 min
Source duration: 1 h 23 min
Bit rate mode: Constant
Bit rate: 448 kb/s
Channel (s): 6 channels
Channel layout: L R C LFE Ls Rs
Sampling rate: 48.0 kHz
Frame rate: 31.250 FPS (1536 SPF)
Bit depth: 16 bits
Compression mode: Lossy
Stream size: 269 MiB (19%)
Alignment: Split across interleaves
Interleave, duration: 69 ms (1.65 video frames)
Interleave, preload duratio: 548 ms
Service kind: Complete Main
AC3_metadata cmixlev: -3.0 dB
surmixlev: -3 dB

Другие фильмы
У данной публикации пока нет комментариев.
Будь первым, оставь своё мнение в комментариях!
Информация
Посетители, находящиеся в группе Гости, не могут оставлять комментарии к данной публикации.
Самый популярный релиз недели
Донаты
Мы в соц. сетях / RSS

Лучшие релизы месяца
Лучшие SD недели
Лучшие 720p недели
Лучшие 1080p недели
Лучшие 4K недели
Вы недавно смотрели
Реклама
Последние комментарии
...

rmzshka

15 мая 2024 13:43

...

Andrey_Vladimirovich

13 мая 2024 18:12

...

Robot

13 мая 2024 16:53

...

rmzshka

13 мая 2024 16:21

...

supermehanik

13 мая 2024 02:03

Реклама