+9

Записи из Гленорма / The Glenarma Tapes (2022) WEB-DLRip-AVC от DoMiNo & селезень | P

Информация о фильме
Название: Записи из Гленорма
Оригинальное название: The Glenarma Tapes
Год выпуска: 2022
Жанр: Ужасы
Режиссер: Тони Дэвлин / Tony Devlin
В ролях: Уоррен МакКук, Р.Г. Ерли, Эмили Лэми, Вики Аллен, Чарли Боннер, Стивен Кэлверт, Ричард Кроксфорд, Колетт Леннон Дагал, Джонни Эверетт, Герард Джордан, Шон Кернс, Луиз Мэтьюз, Либби МакБрайд, Деклан Роджерс.

О фильме:
Весной 2020 года пять студентов и два преподавателя Колледжа искусств Среднего Ольстера, таинственным образом пропадают в лесу на северной части побережье Ирландии. Что же произошло в день их исчезновения, до сих пор остается неразгаданной загадкой.

Выпущено: Великобритания / Village Films
Продолжительность: 01:18:03
Перевод: Профессиональный (многоголосый, закадровый) | TVShows
Субтитры: Английские (full)

Файл
Формат: Matroska
Качество: WEB-DLRip-AVC
Видео: 1024x576 at 23.976 fps, [email protected], ~1846 kbps
Аудио: AC3, 6 ch, ~384 kbps - | Русский | Записи из Гленорма / The Glenarma Tapes (2022) WEB-DLRip-AVC от DoMiNo & селезень | P
Формат субтитров: softsub (SRT)

Авторизуйтесь для получения доступа к скачиванию

Нет аккаунта? Регистрация открыта и займёт меньше минуты

Вход Регистрация

x264 [info]: frame I: 575 Avg QP: 16.11 size: 44675
x264 [info]: frame P: 30397 Avg QP: 18.19 size: 19121
x264 [info]: frame B: 81313 Avg QP: 20.17 size: 5827

General
Unique ID: 147148175408550701454045548627382209490 (0×6EB3B52DABA955234722EE5D18978BD2)
Complete name: I: The.Glenarma.Tapes.2022.MVO.WEB-DLRip.x264.seleZen.mkv
Format: Matroska
Format version: Version 4
File size: 1.22 GiB
Duration: 1 h 18 min
Overall bit rate: 2 232 kb/s
Frame rate: 23.976 FPS
Movie name: The.Glenarma.Tapes.2022.MVO.WEB-DLRip.x264.seleZen
Encoded date: 17.04.2024 16:22:43 UTC
Writing application: mkvmerge v83.0 ('Circle Of Friends') 64-bit
Writing library: libebml v1.4.5 + libmatroska v1.7.1
Cover: Yes
Attachments: cover.jpg / small_cover.jpg

Video
ID: 1
Format: AVC
Format/Info: Advanced Video Codec
Format profile: [email protected]
Format settings: CABAC / 10 Ref Frames
Format settings, CABAC: Yes
Format settings, Reference: 10 frames
Codec ID: V_MPEG4/ISO/AVC
Duration: 1 h 18 min
Bit rate: 1 846 kb/s
Width: 1 024 pixels
Height: 576 pixels
Display aspect ratio: 16:9
Frame rate mode: Constant
Frame rate: 23.976 (24000/1001) FPS
Color space: YUV
Chroma subsampling: 4:2:0
Bit depth: 8 bits
Scan type: Progressive
Bits/(Pixel*Frame): 0.131
Stream size: 1.01 GiB (83%)
Title: -=DoMiNo=-
Writing library: x264 core 164 r3190 -DoMiNo
Encoding settings: cabac=1 / ref=10 / deblock=1:-2:-1 / analyse=0×3:0×133 / me=umh / subme=10 / psy=1 / psy_rd=0.98:0.00 / mixed_ref=1 / me_range=32 / chroma_me=1 / trellis=2 / 8×8dct=1 / cqm=0 / deadzone=21,11 / fast_pskip=0 / chroma_qp_offset=-2 / threads=18 / lookahead_threads=4 / sliced_threads=0 / nr=0 / decimate=0 / interlaced=0 / bluray_compat=0 / constrained_intra=0 / bframes=10 / b_pyramid=2 / b_adapt=2 / b_bias=0 / direct=1 / weightb=1 / open_gop=0 / weightp=2 / keyint=240 / keyint_min=23 / scenecut=40 / intra_refresh=0 / rc_lookahead=60 / rc=crf / mbtree=0 / crf=20.0 / qcomp=0.60 / qpmin=0 / qpmax=69 / qpstep=4 / vbv_maxrate=50000 / vbv_bufsize=62500 / crf_max=0.0 / nal_hrd=none / filler=0 / ip_ratio=1.35 / pb_ratio=1.30 / aq=3:1.00
Language: English
Default: Yes
Forced: No
Color range: Limited
Color primaries: BT.709
Transfer characteristics: BT.709
Matrix coefficients: BT.709

Audio
ID: 2
Format: AC-3
Format/Info: Audio Coding 3
Commercial name: Dolby Digital
Codec ID: A_AC3
Duration: 1 h 18 min
Bit rate mode: Constant
Bit rate: 384 kb/s
Channel (s): 6 channels
Channel layout: L R C LFE Ls Rs
Sampling rate: 48.0 kHz
Frame rate: 31.250 FPS (1536 SPF)
Compression mode: Lossy
Stream size: 214 MiB (17%)
Title: MVO — TVShows
Language: Russian
Service kind: Complete Main
Default: Yes
Forced: No
AC3_metadata cmixlev: -4.5 dB
surmixlev: -6 dB

Text
ID: 3
Format: UTF-8
Codec ID: S_TEXT/UTF8
Codec ID/Info: UTF-8 Plain Text
Duration: 1 h 14 min
Bit rate: 58 b/s
Frame rate: 0.267 FPS
Count of elements: 1185
Stream size: 31.7 KiB (0%)
Title: [full]
Language: English (US)
Default: No
Forced: No

Menu
00:00:00.000: en: Chapter 01
00:05:50.000: en: Chapter 02
00:11:40.000: en: Chapter 03
00:17:30.000: en: Chapter 04
00:23:20.000: en: Chapter 05
00:29:10.000: en: Chapter 06
00:35:00.000: en: Chapter 07
00:40:50.000: en: Chapter 08
00:46:40.000: en: Chapter 09
00:52:30.000: en: Chapter 10
00:58:20.000: en: Chapter 11
01:04:10.000: en: Chapter 12
01:10:00.000: en: Chapter 13
01:15:50.000: en: Chapter 14

Другие фильмы
У данной публикации пока нет комментариев.
Будь первым, оставь своё мнение в комментариях!
Информация
Посетители, находящиеся в группе Гости, не могут оставлять комментарии к данной публикации.
Самый популярный релиз недели
Донаты
Мы в соц. сетях / RSS

Лучшие релизы месяца
Лучшие SD недели
Лучшие 720p недели
Лучшие 1080p недели
Лучшие 4K недели
Вы недавно смотрели
Реклама
Последние комментарии
...

rmzshka

15 мая 2024 13:43

...

Andrey_Vladimirovich

13 мая 2024 18:12

...

Robot

13 мая 2024 16:53

...

rmzshka

13 мая 2024 16:21

...

supermehanik

13 мая 2024 02:03

Реклама