+11

Омен. Непорочная / Immaculate (2024) WEB-DLRip-AVC от DoMiNo & селезень | D, P

Информация о фильме
Название: Омен. Непорочная
Оригинальное название: Immaculate
Год выпуска: 2024
Жанр: Ужасы
Режиссер: Майкл Мохан
В ролях: Сидни Суини, Альваро Морте, Симона Табаско, Бенедетта Поркароли, Джорджо Коланджели, Дора Романо, Джампьеро Джудика, Элизабетта Педрацци

О фильме:
Церковь знала лишь один случай непорочного зачатия, но, похоже, что новая монахиня Сесилия в итальянском монастыре стала второй девственницей, которая вынашивает ребенка. Местные монахи объявили о чуде, но никто точно не знает, кого на самом деле носит под сердцем девушка - нового спасителя или того, кто погрузит мир в вечную тьму.

Выпущено: Италия, США, Black Bear, Fifty-Fifty Films, Lupin Film
Продолжительность: 01:28:58
Перевод 1: Дублированный (неофициальный) | Soundmasters
Перевод 2: Профессиональный (многоголосый, закадровый) | Soundmasters
Субтитры: Русские (Full (stirlooo)), английские

Файл
Формат: Matroska
Качество: WEB-DLRip-AVC
Видео: 1024x512 at 23.976 fps, [email protected], ~1587 kbps
Аудио 1: AC3, 2 ch, ~192 kbps - | Русский | Омен. Непорочная / Immaculate (2024) WEB-DLRip-AVC от DoMiNo & селезень | D, P
Аудио 2: AC3, 6 ch, ~384 kbps - | Русский |
Формат субтитров: softsub (SRT)

Авторизуйтесь для получения доступа к скачиванию

Нет аккаунта? Регистрация открыта и займёт меньше минуты

Вход Регистрация

x264 [info]: frame I:798 Avg QP:13.05 size: 41998
x264 [info]: frame P:25698 Avg QP:15.32 size: 17273
x264 [info]: frame B:101493 Avg QP:17.95 size: 5729

General
Unique ID : 61925094579471505725087836506017992741 (0x2E9656E2A75B69EFB21C8DDCE2579025)
Complete name : R:Immaculate.2024.WEB-DLRip.x264.seleZen.mkv
Format : Matroska
Format version : Version 4
File size : 1.35 GiB
Duration : 1 h 28 min
Overall bit rate : 2 165 kb/s
Frame rate : 23.976 FPS
Movie name : Immaculate.2024.WEB-DLRip.x264.seleZen
Encoded date : 2024-04-29 07:05:56 UTC
Writing application : mkvmerge v84.0 ('Sleeper') 64-bit
Writing library : libebml v1.4.5 + libmatroska v1.7.1
Cover : Yes
Attachments : cover.jpg / small_cover.jpg

Video
ID : 1
Format : AVC
Format/Info : Advanced Video Codec
Format profile : [email protected]
Format settings : CABAC / 14 Ref Frames
Format settings, CABAC : Yes
Format settings, Reference : 14 frames
Codec ID : V_MPEG4/ISO/AVC
Duration : 1 h 28 min
Bit rate : 1 587 kb/s
Width : 1 024 pixels
Height : 512 pixels
Display aspect ratio : 2.000
Frame rate mode : Constant
Frame rate : 23.976 (24000/1001) FPS
Color space : YUV
Chroma subsampling : 4:2:0
Bit depth : 8 bits
Scan type : Progressive
Bits/(Pixel*Frame) : 0.126
Stream size : 1 010 MiB (73%)
Title : -=DoMiNo=-
Writing library : x264 core 164 r3190 -DoMiNo
Encoding settings : cabac=1 / ref=14 / deblock=1:-2:-1 / analyse=0x3:0x133 / me=umh / subme=10 / psy=1 / psy_rd=0.98:0.00 / mixed_ref=1 / me_range=32 / chroma_me=1 / trellis=2 / 8x8dct=1 / cqm=0 / deadzone=21,11 / fast_pskip=0 / chroma_qp_offset=-2 / threads=16 / lookahead_threads=4 / sliced_threads=0 / nr=0 / decimate=0 / interlaced=0 / bluray_compat=0 / constrained_intra=0 / bframes=12 / b_pyramid=2 / b_adapt=2 / b_bias=0 / direct=1 / weightb=1 / open_gop=0 / weightp=2 / keyint=240 / keyint_min=23 / scenecut=40 / intra_refresh=0 / rc_lookahead=60 / rc=crf / mbtree=0 / crf=19.5 / qcomp=0.60 / qpmin=0 / qpmax=69 / qpstep=4 / vbv_maxrate=50000 / vbv_bufsize=62500 / crf_max=0.0 / nal_hrd=none / filler=0 / ip_ratio=1.40 / pb_ratio=1.30 / aq=1:1.00
Language : English
Default : Yes
Forced : No
Color range : Limited
Color primaries : BT.709
Transfer characteristics : BT.709
Matrix coefficients : BT.709

Audio #1
ID : 2
Format : AC-3
Format/Info : Audio Coding 3
Commercial name : Dolby Digital
Codec ID : A_AC3
Duration : 1 h 28 min
Bit rate mode : Constant
Bit rate : 192 kb/s
Channel(s) : 2 channels
Channel layout : L R
Sampling rate : 48.0 kHz
Frame rate : 31.250 FPS (1536 SPF)
Compression mode : Lossy
Stream size : 122 MiB (9%)
Title : DUB -Soundmasters
Language : Russian
Service kind : Complete Main
Default : Yes
Forced : No

Audio #2
ID : 3
Format : AC-3
Format/Info : Audio Coding 3
Commercial name : Dolby Digital
Codec ID : A_AC3
Duration : 1 h 28 min
Bit rate mode : Constant
Bit rate : 384 kb/s
Channel(s) : 6 channels
Channel layout : L R C LFE Ls Rs
Sampling rate : 48.0 kHz
Frame rate : 31.250 FPS (1536 SPF)
Compression mode : Lossy
Stream size : 244 MiB (18%)
Title : MVO -Soundmasters
Language : Russian
Service kind : Complete Main
Default : No
Forced : No
AC3_metadata cmixlev : -4.5 dB
surmixlev : -6 dB

Text #1
ID : 4
Format : UTF-8
Codec ID : S_TEXT/UTF8
Codec ID/Info : UTF-8 Plain Text
Duration : 1 h 19 min
Bit rate : 47 b/s
Frame rate : 0.117 FPS
Count of elements : 563
Stream size : 28.0 KiB (0%)
Title : Full -stirlooo
Language : Russian
Default : No
Forced : No

Text #2
ID : 5
Format : UTF-8
Codec ID : S_TEXT/UTF8
Codec ID/Info : UTF-8 Plain Text
Duration : 1 h 4 min
Bit rate : 7 b/s
Frame rate : 0.032 FPS
Count of elements : 124
Stream size : 3.49 KiB (0%)
Title : Forced
Language : English (US)
Default : No
Forced : No

Text #3
ID : 6
Format : UTF-8
Codec ID : S_TEXT/UTF8
Codec ID/Info : UTF-8 Plain Text
Duration : 1 h 22 min
Bit rate : 26 b/s
Frame rate : 0.121 FPS
Count of elements : 599
Stream size : 16.3 KiB (0%)
Title : Full
Language : English (US)
Default : No
Forced : No

Text #4
ID : 7
Format : UTF-8
Codec ID : S_TEXT/UTF8
Codec ID/Info : UTF-8 Plain Text
Duration : 1 h 23 min
Bit rate : 34 b/s
Frame rate : 0.169 FPS
Count of elements : 843
Stream size : 20.9 KiB (0%)
Title : SDH
Language : English (US)
Default : No
Forced : No

Menu
00:00:00.000 : en:Scene 1
01:20:44.875 : en:End Credits

Другие фильмы
У данной публикации пока нет комментариев.
Будь первым, оставь своё мнение в комментариях!
Информация
Посетители, находящиеся в группе Гости, не могут оставлять комментарии к данной публикации.
Самый популярный релиз недели
Донаты
Мы в соц. сетях / RSS

Лучшие релизы месяца
Лучшие SD недели
Лучшие 720p недели
Лучшие 1080p недели
Лучшие 4K недели
Вы недавно смотрели
Реклама
Последние комментарии
...

rmzshka

15 мая 2024 13:43

...

Andrey_Vladimirovich

13 мая 2024 18:12

...

Robot

13 мая 2024 16:53

...

rmzshka

13 мая 2024 16:21

...

supermehanik

13 мая 2024 02:03

Реклама