+8

Омен. Непорочная / Immaculate (2024) WEB-DLRip от DoMiNo & селезень | P

Информация о фильме
Название: Омен. Непорочная
Оригинальное название: Immaculate
Год выпуска: 2024
Жанр: Ужасы
Режиссер: Майкл Мохан
В ролях: Сидни Суини, Альваро Морте, Симона Табаско, Бенедетта Поркароли, Джорджо Коланджели, Дора Романо, Джампьеро Джудика, Элизабетта Педрацци

О фильме:
Церковь знала лишь один случай непорочного зачатия, но, похоже, что новая монахиня Сесилия в итальянском монастыре стала второй девственницей, которая вынашивает ребенка. Местные монахи объявили о чуде, но никто точно не знает, кого на самом деле носит под сердцем девушка - нового спасителя или того, кто погрузит мир в вечную тьму.

Выпущено: Италия, США, Black Bear, Fifty-Fifty Films, Lupin Film
Продолжительность: 01:28:58
Перевод: Профессиональный (многоголосый, закадровый) | Soundmasters

Файл
Формат: AVI
Качество: WEB-DLRip
Видео: 704x352 at 23.976 fps, XviD 69, ~1949 kbps
Аудио: AC3, 6 ch, ~384 kbps - | Русский | Омен. Непорочная / Immaculate (2024) WEB-DLRip от DoMiNo & селезень | P
Субтитры: Нет

Авторизуйтесь для получения доступа к скачиванию

Нет аккаунта? Регистрация открыта и займёт меньше минуты

Вход Регистрация

General
Complete name: R: Immaculate.2024.MVO.WEB-DLRip.seleZen.avi
Format: AVI
Format/Info: Audio Video Interleave
Format settings: WaveFormatEx
File size: 1.45 GiB
Duration: 1 h 28 min
Overall bit rate: 2 340 kb/s
Frame rate: 23.976 FPS
Movie name: Immaculate.2024.MVO.WEB-DLRip.seleZen
Writing application: VirtualDubModRus 1.5.10.2 (build 2542/release)
Writing library: VirtualDubMod build 2542/release
Copyright: -=DoMiNo=-

Video
ID: 0
Format: MPEG-4 Visual
Format profile: Advanced Simple@L5
Format settings: BVOP1 / Custom Matrix
Format settings, BVOP: 1
Format settings, QPel: No
Format settings, GMC: No warppoints
Format settings, Matrix: Custom
Codec ID: XVID
Codec ID/Hint: XviD
Duration: 1 h 28 min
Bit rate: 1 949 kb/s
Width: 704 pixels
Height: 352 pixels
Display aspect ratio: 2.000
Frame rate: 23.976 (24000/1001) FPS
Color space: YUV
Chroma subsampling: 4:2:0
Bit depth: 8 bits
Scan type: Progressive
Compression mode: Lossy
Bits/(Pixel*Frame): 0.328
Stream size: 1.21 GiB (83%)
Writing library: XviD 69

Audio
ID: 1
Format: AC-3
Format/Info: Audio Coding 3
Commercial name: Dolby Digital
Codec ID: 2000
Duration: 1 h 28 min
Source duration: 1 h 28 min
Bit rate mode: Constant
Bit rate: 384 kb/s
Channel (s): 6 channels
Channel layout: L R C LFE Ls Rs
Sampling rate: 48.0 kHz
Frame rate: 31.250 FPS (1536 SPF)
Bit depth: 16 bits
Compression mode: Lossy
Stream size: 244 MiB (16%)
Alignment: Split across interleaves
Interleave, duration: 80 ms (1.92 video frames)
Interleave, preload duratio: 560 ms
Service kind: Complete Main
AC3_metadata cmixlev: -4.5 dB
surmixlev: -6 dB

Другие фильмы
У данной публикации пока нет комментариев.
Будь первым, оставь своё мнение в комментариях!
Информация
Посетители, находящиеся в группе Гости, не могут оставлять комментарии к данной публикации.
Самый популярный релиз недели
Донаты
Мы в соц. сетях / RSS

Лучшие релизы месяца
Лучшие SD недели
Лучшие 720p недели
Лучшие 1080p недели
Лучшие 4K недели
Вы недавно смотрели
Реклама
Последние комментарии
...

rmzshka

15 мая 2024 13:43

...

Andrey_Vladimirovich

13 мая 2024 18:12

...

Robot

13 мая 2024 16:53

...

rmzshka

13 мая 2024 16:21

...

supermehanik

13 мая 2024 02:03

Реклама