+10

Спуск в бездну / Gueules noires (2023) BDRip от DoMiNo & селезень | D

Информация о фильме
Название: Спуск в бездну
Оригинальное название: Gueules noires
Год выхода: 2023
Жанр: Ужасы
Режиссер: Матьё Тури
В ролях: Самюэль Ле Бьян, Амир Эль Касем, Тома Соливерес, Жан-Юг Англад, Диего Мартин, Марк Ризо, Бруно Санчес, Филипп Торретон

О фильме:
Группе горняков поручают сопроводить профессора к месту раскопок. На самой глубине шахты они натыкаются на древний склеп и пробуждают ужасное и кровожадное зло, что веками таилось во мраке.

Выпущено: Франция / Fulltime Studio, Marcel Films, OCS
Продолжительность: 01:43:33
Перевод: Профессиональный (полное дублирование) | Кипарис

Файл
Формат: AVI
Качество: BDRip [Исх.Gueules.noires.2023.VOF.1080p.FRA.BluRay.AVC.DTS-HD.MA.5.1-RyanHG]
Видео: 720x304 at 23.976 fps, XviD 69, ~1567 kbps
Аудио: AC3, 6 ch, ~448 kbps - | Русский | Спуск в бездну / Gueules noires (2023) BDRip от DoMiNo & селезень | D
Субтитры: Нет

Авторизуйтесь для получения доступа к скачиванию

Нет аккаунта? Регистрация открыта и займёт меньше минуты

Вход Регистрация

General
Complete name: I: Gueules.noires.2023.DUB.BDRip.seleZen.avi
Format: AVI
Format/Info: Audio Video Interleave
Format settings: BitmapInfoHeader / WaveFormatEx
File size: 1.46 GiB
Duration: 1 h 43 min
Overall bit rate: 2 023 kb/s
Frame rate: 24.000 FPS
Movie name: Gueules.noires.2023.DUB.BDRip.seleZen
Writing application: VirtualDubModRus 1.5.10.2 (build 2542/release)
Writing library: VirtualDubMod build 2542/release
Copyright: -=DoMiNo=-

Video
ID: 0
Format: MPEG-4 Visual
Format profile: Advanced Simple@L5
Format settings: BVOP1 / Custom Matrix
Format settings, BVOP: 1
Format settings, QPel: No
Format settings, GMC: No warppoints
Format settings, Matrix: Custom
Codec ID: XVID
Codec ID/Hint: XviD
Duration: 1 h 43 min
Bit rate: 1 567 kb/s
Width: 720 pixels
Height: 304 pixels
Display aspect ratio: 2.39:1
Frame rate: 24.000 FPS
Color space: YUV
Chroma subsampling: 4:2:0
Bit depth: 8 bits
Scan type: Progressive
Compression mode: Lossy
Bits/(Pixel*Frame): 0.298
Stream size: 1.13 GiB (77%)
Writing library: XviD 69

Audio
ID: 1
Format: AC-3
Format/Info: Audio Coding 3
Commercial name: Dolby Digital
Codec ID: 2000
Duration: 1 h 43 min
Source duration: 1 h 43 min
Bit rate mode: Constant
Bit rate: 448 kb/s
Channel (s): 6 channels
Channel layout: L R C LFE Ls Rs
Sampling rate: 48.0 kHz
Frame rate: 31.250 FPS (1536 SPF)
Bit depth: 16 bits
Compression mode: Lossy
Stream size: 332 MiB (22%)
Alignment: Split across interleaves
Interleave, duration: 69 ms (1.65 video frames)
Interleave, preload duratio: 548 ms
Service kind: Complete Main
AC3_metadata cmixlev: -3.0 dB
surmixlev: -3 dB

Другие фильмы
У данной публикации пока нет комментариев.
Будь первым, оставь своё мнение в комментариях!
Информация
Посетители, находящиеся в группе Гости, не могут оставлять комментарии к данной публикации.
Самый популярный релиз недели
Донаты
Мы в соц. сетях / RSS

Лучшие релизы месяца
Лучшие SD недели
Лучшие 720p недели
Лучшие 1080p недели
Лучшие 4K недели
Вы недавно смотрели
Реклама
Последние комментарии
...

rmzshka

15 мая 2024 13:43

...

Andrey_Vladimirovich

13 мая 2024 18:12

...

Robot

13 мая 2024 16:53

...

rmzshka

13 мая 2024 16:21

...

supermehanik

13 мая 2024 02:03

Реклама