+8

Спуск в бездну / Gueules noires (2023) BDRip-AVC от DoMiNo & селезень | D

Информация о фильме
Название: Спуск в бездну
Оригинальное название: Gueules noires
Год выхода: 2023
Жанр: Ужасы
Режиссер: Матьё Тури
В ролях: Самюэль Ле Бьян, Амир Эль Касем, Тома Соливерес, Жан-Юг Англад, Диего Мартин, Марк Ризо, Бруно Санчес, Филипп Торретон

О фильме:
Группе горняков поручают сопроводить профессора к месту раскопок. На самой глубине шахты они натыкаются на древний склеп и пробуждают ужасное и кровожадное зло, что веками таилось во мраке.

Выпущено: Франция / Fulltime Studio, Marcel Films, OCS
Продолжительность: 01:43:33
Перевод: Профессиональный (полное дублирование) | Кипарис
Субтитры: Английские (Full), французские (forced)

Файл
Формат: Matroska
Качество: BDRip-AVC [Исх.Gueules.noires.2023.VOF.1080p.FRA.BluRay.AVC.DTS-HD.MA.5.1-RyanHG]
Видео: 1024x428 at 24.000 fps, [email protected], ~1572 kbps
Аудио: AC3, 6 ch, ~448 kbps - | Русский | Спуск в бездну / Gueules noires (2023) BDRip-AVC от DoMiNo & селезень | D
Формат субтитров: softsub (SRT)

Авторизуйтесь для получения доступа к скачиванию

Нет аккаунта? Регистрация открыта и займёт меньше минуты

Вход Регистрация

General
Unique ID: 186686793029970985761807126708763892539 (0×8C729188ADCBB28A54ABBC2FDC7E1B3B)
Complete name: I: Gueules.noires.2023.DUB.BDRip.x264.seleZen.mkv
Format: Matroska
Format version: Version 4
File size: 1.45 GiB
Duration: 1 h 43 min
Overall bit rate: 2 009 kb/s
Frame rate: 24.000 FPS
Movie name: Gueules.noires.2023.DUB.BDRip.x264.seleZen
Encoded date: 19.04.2024 07:41:09 UTC
Writing application: mkvmerge v83.0 ('Circle Of Friends') 64-bit
Writing library: libebml v1.4.5 + libmatroska v1.7.1
Cover: Yes
Attachments: cover.jpg / small_cover.jpg

Video
ID: 1
Format: AVC
Format/Info: Advanced Video Codec
Format profile: [email protected]
Format settings: CABAC / 14 Ref Frames
Format settings, CABAC: Yes
Format settings, Reference: 14 frames
Codec ID: V_MPEG4/ISO/AVC
Duration: 1 h 43 min
Bit rate: 1 572 kb/s
Width: 1 024 pixels
Height: 428 pixels
Display aspect ratio: 2.39:1
Frame rate mode: Constant
Frame rate: 24.000 FPS
Color space: YUV
Chroma subsampling: 4:2:0
Bit depth: 8 bits
Scan type: Progressive
Bits/(Pixel*Frame): 0.149
Stream size: 1.13 GiB (78%)
Title: -=DoMiNo=-
Writing library: x264 core 164 r3190 -DoMiNo
Encoding settings: cabac=1 / ref=14 / deblock=1:-2:-2 / analyse=0×3:0×133 / me=umh / subme=10 / psy=1 / psy_rd=1.00:0.00 / mixed_ref=1 / me_range=32 / chroma_me=1 / trellis=2 / 8×8dct=1 / cqm=0 / deadzone=21,11 / fast_pskip=0 / chroma_qp_offset=-2 / threads=13 / lookahead_threads=3 / sliced_threads=0 / nr=0 / decimate=0 / interlaced=0 / bluray_compat=0 / constrained_intra=0 / bframes=12 / b_pyramid=2 / b_adapt=2 / b_bias=0 / direct=3 / weightb=1 / open_gop=0 / weightp=2 / keyint=240 / keyint_min=24 / scenecut=40 / intra_refresh=0 / rc_lookahead=60 / rc=2pass / mbtree=0 / bitrate=1572 / ratetol=1.0 / qcomp=0.70 / qpmin=0 / qpmax=69 / qpstep=4 / cplxblur=20.0 / qblur=0.5 / vbv_maxrate=50000 / vbv_bufsize=62500 / nal_hrd=none / filler=0 / ip_ratio=1.20 / pb_ratio=1.30 / aq=3:0.80
Language: English
Default: Yes
Forced: No
Color range: Limited
Color primaries: BT.709
Transfer characteristics: BT.709
Matrix coefficients: BT.709

Audio
ID: 2
Format: AC-3
Format/Info: Audio Coding 3
Commercial name: Dolby Digital
Codec ID: A_AC3
Duration: 1 h 43 min
Bit rate mode: Constant
Bit rate: 448 kb/s
Channel (s): 6 channels
Channel layout: L R C LFE Ls Rs
Sampling rate: 48.0 kHz
Frame rate: 31.250 FPS (1536 SPF)
Compression mode: Lossy
Stream size: 332 MiB (22%)
Title: Dub -Кипарис
Language: Russian
Service kind: Complete Main
Default: Yes
Forced: No
AC3_metadata cmixlev: -3.0 dB
surmixlev: -3 dB

Text #1
ID: 3
Format: UTF-8
Codec ID: S_TEXT/UTF8
Codec ID/Info: UTF-8 Plain Text
Duration: 1 h 35 min
Bit rate: 44 b/s
Frame rate: 0.197 FPS
Count of elements: 1135
Stream size: 31.2 KiB (0%)
Title: Full
Language: English
Default: No
Forced: No

Text #2
ID: 4
Format: UTF-8
Codec ID: S_TEXT/UTF8
Codec ID/Info: UTF-8 Plain Text
Duration: 57 s 542 ms
Bit rate: 56 b/s
Frame rate: 0.313 FPS
Count of elements: 18
Stream size: 406 Bytes (0%)
Title: Forced
Language: French
Default: No
Forced: No

Menu
00:00:00.000: Глава 1
00:11:23.833: Глава 2
00:22:48.125: Глава 3
00:29:29.791: Глава 4
00:39:15.583: Глава 5
00:48:09.833: Глава 6
01:02:48.875: Глава 7
01:13:12.333: Глава 8
01:23:12.708: Глава 9
01:33:44.166: Глава 10
01:37:10.750: Глава 11
01:43:33.666: Глава 12

Другие фильмы
У данной публикации пока нет комментариев.
Будь первым, оставь своё мнение в комментариях!
Информация
Посетители, находящиеся в группе Гости, не могут оставлять комментарии к данной публикации.
Самый популярный релиз недели
Донаты
Мы в соц. сетях / RSS

Лучшие релизы месяца
Лучшие SD недели
Лучшие 720p недели
Лучшие 1080p недели
Лучшие 4K недели
Вы недавно смотрели
Реклама
Последние комментарии
...

rmzshka

15 мая 2024 13:43

...

Andrey_Vladimirovich

13 мая 2024 18:12

...

Robot

13 мая 2024 16:53

...

rmzshka

13 мая 2024 16:21

...

supermehanik

13 мая 2024 02:03

Реклама