+5

Спуск в бездну / Gueules noires / The Deep Dark (2023) BDRip 1080p от селезень | D | KION

Информация о фильме
Название: Спуск в бездну
Оригинальное название: Gueules noires
Год выхода: 2023
Жанр: ужасы
Режиссер: Матьё Тури
В ролях: Самюэль Ле Бьян, Амир Эль Касем, Тома Соливерес, Жан-Юг Англад, Карл Лафоре, Диего Мартин, Марк Ризо, Бруно Санчес, Филипп Торретон

О фильме: Группе горняков поручают сопроводить профессора к месту раскопок. На самой глубине шахты они натыкаются на древний склеп и пробуждают ужасное и кровожадное зло, что веками таилось во мраке.

Страна: Франция
Студия: Fulltime Studio, Marcel Films
Продолжительность: 01:43:34
Перевод: Дублированный | Кипарис (KION)

Качество: BDRip 1080p
Видео: MPEG-4 AVC, 1920x804, 10.0 Mbit/s, 24.000 fps
Аудио #01: 48 kHz, AC3, 5.1, 640 Kbps | Дублированный | RUS |Спуск в бездну / Gueules noires / The Deep Dark (2023) BDRip 1080p от селезень | D | KION
Аудио #02: 48 kHz, AC3, 5.1, 640 Kbps | Оригинал | FRE |
Субтитры: Английские

Спуск в бездну / Gueules noires / The Deep Dark (2023) BDRip 1080p от селезень | D | KION

Авторизуйтесь для получения доступа к скачиванию

Нет аккаунта? Регистрация открыта и займёт меньше минуты

Вход Регистрация

General
Unique ID : 246288377178873116918954236446113046778 (0xB9496A82AAF7630C0A05AA2CAC64A0FA)
Complete name : H:\VideoH\The.Deep.Dark.2023.BDRip.1080p.seleZen.mkv
Format : Matroska
Format version : Version 4
File size : 8.16 GiB
Duration : 1 h 43 min
Overall bit rate : 11.3 Mb/s
Frame rate : 24.000 FPS
Movie name : Gueules noires AKA The Deep Dark [2023] from seleZen
Encoded date : 2024-04-19 08:17:56 UTC
Writing application : mkvmerge v80.0 ('Roundabout') 64-bit
Writing library : libebml v1.4.4 + libmatroska v1.7.1

Video
ID : 1
Format : AVC
Format/Info : Advanced Video Codec
Format profile : [email protected]
Format settings : CABAC / 5 Ref Frames
Format settings, CABAC : Yes
Format settings, Reference : 5 frames
Codec ID : V_MPEG4/ISO/AVC
Duration : 1 h 43 min
Bit rate : 10 000 kb/s
Width : 1 920 pixels
Height : 804 pixels
Display aspect ratio : 2.39:1
Frame rate mode : Constant
Frame rate : 24.000 FPS
Color space : YUV
Chroma subsampling : 4:2:0
Bit depth : 8 bits
Scan type : Progressive
Bits/(Pixel*Frame) : 0.270
Stream size : 7.23 GiB (89%)
Writing library : x264 core 164 r3164 seleZen
Encoding settings : cabac=1 / ref=5 / deblock=1:-2:-2 / analyse=0x3:0x133 / me=umh / subme=11 / psy=1 / psy_rd=1.02:0.03 / mixed_ref=1 / me_range=48 / chroma_me=1 / trellis=2 / 8x8dct=1 / cqm=0 / deadzone=21,11 / fast_pskip=0 / chroma_qp_offset=-3 / threads=25 / lookahead_threads=6 / sliced_threads=0 / nr=0 / decimate=0 / interlaced=0 / bluray_compat=0 / constrained_intra=0 / bframes=10 / b_pyramid=2 / b_adapt=2 / b_bias=0 / direct=3 / weightb=1 / open_gop=0 / weightp=2 / keyint=240 / keyint_min=23 / scenecut=40 / intra_refresh=0 / rc_lookahead=60 / rc=2pass / mbtree=0 / bitrate=10000 / ratetol=1.0 / qcomp=0.60 / qpmin=0 / qpmax=51 / qpstep=4 / cplxblur=20.0 / qblur=0.5 / vbv_maxrate=50000 / vbv_bufsize=62500 / nal_hrd=none / filler=0 / ip_ratio=1.40 / pb_ratio=1.30 / aq=3:0.80
Language : English
Default : Yes
Forced : No

Audio #1
ID : 2
Format : AC-3
Format/Info : Audio Coding 3
Commercial name : Dolby Digital
Codec ID : A_AC3
Duration : 1 h 43 min
Bit rate mode : Constant
Bit rate : 640 kb/s
Channel(s) : 6 channels
Channel layout : L R C LFE Ls Rs
Sampling rate : 48.0 kHz
Frame rate : 31.250 FPS (1536 SPF)
Compression mode : Lossy
Stream size : 474 MiB (6%)
Title : Dub
Language : Russian
Service kind : Complete Main
Default : Yes
Forced : No

Audio #2
ID : 3
Format : AC-3
Format/Info : Audio Coding 3
Commercial name : Dolby Digital
Codec ID : A_AC3
Duration : 1 h 43 min
Bit rate mode : Constant
Bit rate : 640 kb/s
Channel(s) : 6 channels
Channel layout : L R C LFE Ls Rs
Sampling rate : 48.0 kHz
Frame rate : 31.250 FPS (1536 SPF)
Compression mode : Lossy
Stream size : 474 MiB (6%)
Title : Original
Language : French
Service kind : Complete Main
Default : No
Forced : No

Text
ID : 4
Format : UTF-8
Codec ID : S_TEXT/UTF8
Codec ID/Info : UTF-8 Plain Text
Duration : 1 h 36 min
Bit rate : 43 b/s
Frame rate : 0.195 FPS
Count of elements : 1136
Stream size : 31.2 KiB (0%)
Language : English
Default : No
Forced : No

Menu
00:00:00.000 : en:chapter01
00:11:23.833 : en:chapter02
00:22:48.125 : en:chapter03
00:29:29.791 : en:chapter04
00:39:15.583 : en:chapter05
00:48:09.833 : en:chapter06
01:02:48.875 : en:chapter07
01:13:12.333 : en:chapter08
01:23:12.708 : en:chapter09
01:33:44.166 : en:chapter10
01:37:10.750 : en:chapter11

Другие фильмы
У данной публикации пока нет комментариев.
Будь первым, оставь своё мнение в комментариях!
Информация
Посетители, находящиеся в группе Гости, не могут оставлять комментарии к данной публикации.
Самый популярный релиз недели
Донаты
Мы в соц. сетях / RSS

Лучшие релизы месяца
Лучшие SD недели
Лучшие 720p недели
Лучшие 1080p недели
Лучшие 4K недели
Вы недавно смотрели
Реклама
Последние комментарии
...

rmzshka

15 мая 2024 13:43

...

Andrey_Vladimirovich

13 мая 2024 18:12

...

Robot

13 мая 2024 16:53

...

rmzshka

13 мая 2024 16:21

...

supermehanik

13 мая 2024 02:03

Реклама