+20

Мятежная Луна, часть 2: Оставляющая шрамы / Rebel Moon - Part Two: The Scargiver (2024) WEB-DLRip 720p от DoMiNo & селезень | D, P, P2

Информация о фильме
Название: Мятежная Луна, часть 2: Оставляющая шрамы
Оригинальное название: Rebel Moon - Part Two: The Scargiver
Год выхода: 2024
Жанр: Фантастика, фэнтези, боевик, драма, приключения
Режиссер: Зак Снайдер / Zack Snyder
В ролях: София Бутелла, Джимон Хонсу, Эд Скрейн, Михиль Хаусман, Стаз Наир, Джена Мэлоун, Чарли Ханнэм, Пэ Дуна, Клеопатра Коулмэн, Кэри Элвис, Стюарт Мартин, Рэй Фишер, Кори Столл, Альфонсо Эррера, Триша Симмонс, Фра Фи, Саванна Ганн, Джозефина Линдегард, Скай Ян, Райан Рис, Кингстон Фостер, Томм Восс, Тор Кнай, Рафаэль Коркхилл, Гаден Драгомер, Кристин Келлогг-Даррин, Мэтт Нолан, Кендалл Уэллс, Ивэн Шафран, Майкл Джеймс Белл, Даррен Джейкобс, Адам Джей Смит, Пол Кулос, Эрик Томас

О фильме:
События фильма разворачиваются во вселенной, контролируемой коррумпированным правительством Праматери. Кора и выжившие воины готовятся пожертвовать всем, сражаясь плечом к плечу с народом Вельдта. Накануне битвы героям предстоит взглянуть в лицо своему прошлому и понять за что они должны биться.

Страна: США / Grand Electric, The Stone Quarry
Продолжительность: 02:03:54
Перевод 1: Профессиональный (многоголосый, закадровый) | TVShows
Перевод 2: Профессиональный (многоголосый, закадровый) | Jaskier
Перевод 3: Профессиональный (многоголосый закадровый) | LostFilm
Перевод 4: Дублированный (неофициальный) | HDrezka Studio
Перевод 5: Профессиональный (двухголосый закадровый) | ViruseProject
Субтитры: Русские (Full), английские

Файл
Формат: Matroska
Качество: WEB-DLRip 720p
Видео: 1280x534 at 24.000 fps, [email protected], ~2252 kbps
Аудио 1: AC3, 6 ch, ~640 kbps - | Русский | Мятежная Луна, часть 2: Оставляющая шрамы / Rebel Moon - Part Two: The Scargiver (2024) WEB-DLRip 720p от DoMiNo & селезень | D, P, P2 | TVShows
Аудио 2: AC3, 6 ch, ~448 kbps - | Русский | | Jaskier
Аудио 3: AC3, 6 ch, ~448 kbps - | Русский | | LostFilm
Аудио 4: AC3, 2 ch, ~192 kbps - | Русский | | HDrezka Studio
Аудио 5: AC3, 6 ch, ~640 kbps - | Русский | | ViruseProject
Аудио 6: AC3, 6 ch, ~448 kbps - | Английский | | Original
Формат субтитров: softsub (SRT)

Авторизуйтесь для получения доступа к скачиванию

Нет аккаунта? Регистрация открыта и займёт меньше минуты

Вход Регистрация

General
Unique ID: 39563861304386141711176353334651367870 (0×1DC3B8F714F5283EFC10914571B5B1BE)
Complete name: T: Rebel.Moon.Part.Two.2024.D.P.P2.NF.WEB-DLRip.720p.x264.seleZen.mkv
Format: Matroska
Format version: Version 4
File size: 4.39 GiB
Duration: 2 h 3 min
Overall bit rate: 5 071 kb/s
Frame rate: 24.000 FPS
Movie name: Rebel.Moon.Part.Two.2024.D.P.P2.NF.WEB-DLRip.720p.x264.seleZen
Encoded date: 28.04.2024 11:42:00 UTC
Writing application: mkvmerge v83.0 ('Circle Of Friends') 64-bit
Writing library: libebml v1.4.5 + libmatroska v1.7.1
Cover: Yes
Attachments: cover.jpg / small_cover.jpg

Video
ID: 1
Format: AVC
Format/Info: Advanced Video Codec
Format profile: [email protected]
Format settings: CABAC / 5 Ref Frames
Format settings, CABAC: Yes
Format settings, Reference: 5 frames
Codec ID: V_MPEG4/ISO/AVC
Duration: 2 h 3 min
Bit rate: 2 252 kb/s
Width: 1 280 pixels
Height: 534 pixels
Display aspect ratio: 2.40:1
Frame rate mode: Constant
Frame rate: 24.000 FPS
Color space: YUV
Chroma subsampling: 4:2:0
Bit depth: 8 bits
Scan type: Progressive
Bits/(Pixel*Frame): 0.137
Stream size: 1.95 GiB (44%)
Title: -=DoMiNo=-
Writing library: x264 core 164 r3190 -DoMiNo
Encoding settings: cabac=1 / ref=5 / deblock=1:-2:-1 / analyse=0×3:0×133 / me=umh / subme=10 / psy=1 / psy_rd=1.02:0.03 / mixed_ref=1 / me_range=32 / chroma_me=1 / trellis=2 / 8×8dct=1 / cqm=0 / deadzone=21,11 / fast_pskip=0 / chroma_qp_offset=-3 / threads=17 / lookahead_threads=2 / sliced_threads=0 / nr=0 / decimate=0 / interlaced=0 / bluray_compat=0 / constrained_intra=0 / bframes=9 / b_pyramid=2 / b_adapt=2 / b_bias=0 / direct=1 / weightb=1 / open_gop=0 / weightp=2 / keyint=240 / keyint_min=24 / scenecut=40 / intra_refresh=0 / rc_lookahead=60 / rc=crf / mbtree=0 / crf=18.0 / qcomp=0.60 / qpmin=0 / qpmax=69 / qpstep=4 / vbv_maxrate=50000 / vbv_bufsize=62500 / crf_max=0.0 / nal_hrd=none / filler=0 / ip_ratio=1.40 / pb_ratio=1.30 / aq=1:0.80
Language: English
Default: Yes
Forced: No
Color range: Limited
Color primaries: BT.709
Transfer characteristics: BT.709
Matrix coefficients: BT.709

Audio #1
ID: 2
Format: AC-3
Format/Info: Audio Coding 3
Commercial name: Dolby Digital
Codec ID: A_AC3
Duration: 2 h 3 min
Bit rate mode: Constant
Bit rate: 640 kb/s
Channel (s): 6 channels
Channel layout: L R C LFE Ls Rs
Sampling rate: 48.0 kHz
Frame rate: 31.250 FPS (1536 SPF)
Compression mode: Lossy
Stream size: 567 MiB (13%)
Title: MVO -TVShows
Language: Russian
Service kind: Complete Main
Default: Yes
Forced: No
AC3_metadata cmixlev: -4.5 dB
surmixlev: -6 dB

Audio #2
ID: 3
Format: AC-3
Format/Info: Audio Coding 3
Commercial name: Dolby Digital
Codec ID: A_AC3
Duration: 2 h 3 min
Bit rate mode: Constant
Bit rate: 448 kb/s
Channel (s): 6 channels
Channel layout: L R C LFE Ls Rs
Sampling rate: 48.0 kHz
Frame rate: 31.250 FPS (1536 SPF)
Compression mode: Lossy
Stream size: 397 MiB (9%)
Title: MVO -Jaskier
Language: Russian
Service kind: Complete Main
Default: No
Forced: No
AC3_metadata cmixlev: -3.0 dB
surmixlev: -3 dB

Audio #3
ID: 4
Format: AC-3
Format/Info: Audio Coding 3
Commercial name: Dolby Digital
Codec ID: A_AC3
Duration: 2 h 3 min
Bit rate mode: Constant
Bit rate: 448 kb/s
Channel (s): 6 channels
Channel layout: L R C LFE Ls Rs
Sampling rate: 48.0 kHz
Frame rate: 31.250 FPS (1536 SPF)
Compression mode: Lossy
Stream size: 397 MiB (9%)
Title: MVO -LostFilm
Language: Russian
Service kind: Complete Main
Default: No
Forced: No
AC3_metadata cmixlev: -3.0 dB
surmixlev: -3 dB

Audio #4
ID: 5
Format: AC-3
Format/Info: Audio Coding 3
Commercial name: Dolby Digital
Codec ID: A_AC3
Duration: 2 h 3 min
Bit rate mode: Constant
Bit rate: 192 kb/s
Channel (s): 2 channels
Channel layout: L R
Sampling rate: 48.0 kHz
Frame rate: 31.250 FPS (1536 SPF)
Compression mode: Lossy
Stream size: 170 MiB (4%)
Title: Dub -HDRezka Studio
Language: Russian
Service kind: Complete Main
Default: No
Forced: No

Audio #5
ID: 6
Format: AC-3
Format/Info: Audio Coding 3
Commercial name: Dolby Digital
Codec ID: A_AC3
Duration: 2 h 3 min
Bit rate mode: Constant
Bit rate: 640 kb/s
Channel (s): 6 channels
Channel layout: L R C LFE Ls Rs
Sampling rate: 48.0 kHz
Frame rate: 31.250 FPS (1536 SPF)
Compression mode: Lossy
Stream size: 567 MiB (13%)
Title: DVO -ViruseProject
Language: Russian
Service kind: Complete Main
Default: No
Forced: No
AC3_metadata cmixlev: -4.5 dB
surmixlev: -6 dB

Audio #6
ID: 7
Format: AC-3
Format/Info: Audio Coding 3
Commercial name: Dolby Digital
Codec ID: A_AC3
Duration: 2 h 3 min
Bit rate mode: Constant
Bit rate: 448 kb/s
Channel (s): 6 channels
Channel layout: L R C LFE Ls Rs
Sampling rate: 48.0 kHz
Frame rate: 31.250 FPS (1536 SPF)
Compression mode: Lossy
Stream size: 397 MiB (9%)
Title: Original
Language: English
Service kind: Complete Main
Default: No
Forced: No
AC3_metadata cmixlev: -4.5 dB
surmixlev: -6 dB

Text #1
ID: 8
Format: UTF-8
Codec ID: S_TEXT/UTF8
Codec ID/Info: UTF-8 Plain Text
Duration: 2 h 0 min
Bit rate: 47 b/s
Frame rate: 0.118 FPS
Count of elements: 857
Stream size: 41.8 KiB (0%)
Title: Full
Language: Russian
Default: No
Forced: No

Text #2
ID: 9
Format: UTF-8
Codec ID: S_TEXT/UTF8
Codec ID/Info: UTF-8 Plain Text
Duration: 1 h 51 min
Bit rate: 34 b/s
Frame rate: 0.136 FPS
Count of elements: 910
Stream size: 28.4 KiB (0%)
Title: Full
Language: English
Default: No
Forced: No

Text #3
ID: 10
Format: UTF-8
Codec ID: S_TEXT/UTF8
Codec ID/Info: UTF-8 Plain Text
Duration: 1 h 59 min
Bit rate: 45 b/s
Frame rate: 0.191 FPS
Count of elements: 1378
Stream size: 39.7 KiB (0%)
Title: SDH
Language: English
Default: No
Forced: No

Menu
00:00:00.000: en: Chapter 01
00:05:50.000: en: Chapter 02
00:11:40.000: en: Chapter 03
00:17:30.000: en: Chapter 04
00:23:20.000: en: Chapter 05
00:29:10.000: en: Chapter 06
00:35:00.000: en: Chapter 07
00:40:50.000: en: Chapter 08
00:46:40.000: en: Chapter 09
00:52:30.000: en: Chapter 10
00:58:20.000: en: Chapter 11
01:04:10.000: en: Chapter 12
01:10:00.000: en: Chapter 13
01:15:50.000: en: Chapter 14
01:21:40.000: en: Chapter 15
01:27:30.000: en: Chapter 16
01:33:20.000: en: Chapter 17
01:39:10.000: en: Chapter 18
01:45:00.000: en: Chapter 19
01:50:50.000: en: Chapter 20
01:56:40.000: en: Chapter 21
02:02:30.000: en: Chapter 22

Другие фильмы
У данной публикации пока нет комментариев.
Будь первым, оставь своё мнение в комментариях!
Информация
Посетители, находящиеся в группе Гости, не могут оставлять комментарии к данной публикации.
Самый популярный релиз недели
Донаты
Мы в соц. сетях / RSS

Лучшие релизы месяца
Лучшие SD недели
Лучшие 720p недели
Лучшие 1080p недели
Лучшие 4K недели
Вы недавно смотрели
Реклама
Последние комментарии
...

rmzshka

15 мая 2024 13:43

...

Andrey_Vladimirovich

13 мая 2024 18:12

...

Robot

13 мая 2024 16:53

...

rmzshka

13 мая 2024 16:21

...

supermehanik

13 мая 2024 02:03

Реклама