+12

Закусочная / Snack Shack (2024) WEB-DLRip 720p от DoMiNo & селезень | P

Информация о фильме
Название: Закусочная
Оригинальное название: Snack Shack
Год выпуска: 2024
Жанр: Комедия
Режиссер: Адам Ремейер / Adam Rehmeier
В ролях: Гэбриел ЛаБелль, Конор Шерри, Мика Абдалла, Ник Робинсон, Майкл Бонини, Джиллиан Вигман, Джей Ди Эвермор, Стив Берг, Дэвид Костабайл, Кристиан Джеймс, Амбер Пол, Мелисса Ракиро, Кейт Робертсон Прайор, Доусон Маллен, Коэн Чарльз Зев, Джун Джентри, Доминик Маррон, Кристиан Дж Велез, Омри Горовиц, Сайди Хендерсон, Ариэль Селеста.

О фильме:
События разворачиваются летом 1991-го года в Небраска-Сити. Лучшие друзья Эй-Джей и Мус ищут разные способы заработать, но все их планы проваливаются. Неожиданно парни получают возможность стать управляющими обшарпанной закусочной у бассейна и берутся за дело со всем энтузиазмом, надеясь на этот раз точно разбогатеть. Вскоре закусочная становится эпицентром подросткового веселья, шалостей, романтики и самопознания. Однако появление Брук — симпатичной девушки-спасательницы — ставит под угрозу не только планы парней, но и их дружбу.

Выпущено: США / MRC FilmT-Street, Paperclip Limited
Продолжительность: 01:52:14
Перевод: Профессиональный (многоголосый, закадровый) | TVShows
Субтитры: Английские (Full, SDH)

Файл
Формат: Matroska
Качество: WEB-DLRip 720p [Исх.Snack.Shack.2024.2160p.AMZN.WEB-DL.DDP5.1.H.265-FLUX]
Видео: 1280x534 at 23.976 fps, [email protected], ~3731 kbps
Аудио 1: AC3, 6 ch, ~384 kbps - | Русский | Закусочная / Snack Shack (2024) WEB-DLRip 720p от DoMiNo & селезень | P
Аудио 2: AC3, 6 ch, ~384 kbps - | Английский |
Формат субтитров: softsub (SRT)

Авторизуйтесь для получения доступа к скачиванию

Нет аккаунта? Регистрация открыта и займёт меньше минуты

Вход Регистрация

General
Unique ID: 228419715800908467602182727943078725634 (0xABD8097C6EB7F5F12D54929024C6C802)
Complete name: T: Snack.Shack.2024.MVO.WEB-DLRip.720p.x264.seleZen.mkv
Format: Matroska
Format version: Version 4
File size: 3.53 GiB
Duration: 1 h 52 min
Overall bit rate: 4 500 kb/s
Frame rate: 23.976 FPS
Movie name: Snack.Shack.2024.MVO.WEB-DLRip.720p.x264.seleZen
Encoded date: 19.04.2024 12:37:11 UTC
Writing application: mkvmerge v83.0 ('Circle Of Friends') 64-bit
Writing library: libebml v1.4.5 + libmatroska v1.7.1
Cover: Yes
Attachments: cover.jpg / small_cover.jpg

Video
ID: 1
Format: AVC
Format/Info: Advanced Video Codec
Format profile: [email protected]
Format settings: CABAC / 5 Ref Frames
Format settings, CABAC: Yes
Format settings, Reference: 5 frames
Codec ID: V_MPEG4/ISO/AVC
Duration: 1 h 52 min
Bit rate: 3 731 kb/s
Width: 1 280 pixels
Height: 534 pixels
Display aspect ratio: 2.40:1
Frame rate mode: Constant
Frame rate: 23.976 (24000/1001) FPS
Color space: YUV
Chroma subsampling: 4:2:0
Bit depth: 8 bits
Scan type: Progressive
Bits/(Pixel*Frame): 0.228
Stream size: 2.92 GiB (83%)
Title: -=DoMiNo=-
Writing library: x264 core 164 r3190 -DoMiNo
Encoding settings: cabac=1 / ref=5 / deblock=1:-2:-1 / analyse=0×3:0×133 / me=umh / subme=10 / psy=1 / psy_rd=1.01:0.03 / mixed_ref=1 / me_range=32 / chroma_me=1 / trellis=2 / 8×8dct=1 / cqm=0 / deadzone=21,11 / fast_pskip=0 / chroma_qp_offset=-3 / threads=17 / lookahead_threads=4 / sliced_threads=0 / nr=0 / decimate=0 / interlaced=0 / bluray_compat=0 / constrained_intra=0 / bframes=12 / b_pyramid=2 / b_adapt=2 / b_bias=0 / direct=1 / weightb=1 / open_gop=0 / weightp=2 / keyint=240 / keyint_min=23 / scenecut=40 / intra_refresh=0 / rc_lookahead=60 / rc=crf / mbtree=0 / crf=20.0 / qcomp=0.60 / qpmin=0 / qpmax=69 / qpstep=4 / vbv_maxrate=50000 / vbv_bufsize=62500 / crf_max=0.0 / nal_hrd=none / filler=0 / ip_ratio=1.40 / pb_ratio=1.30 / aq=3:0.80
Language: English
Default: Yes
Forced: No
Color range: Limited
Color primaries: BT.709
Transfer characteristics: BT.709
Matrix coefficients: BT.709

Audio #1
ID: 2
Format: AC-3
Format/Info: Audio Coding 3
Commercial name: Dolby Digital
Codec ID: A_AC3
Duration: 1 h 51 min
Bit rate mode: Constant
Bit rate: 384 kb/s
Channel (s): 6 channels
Channel layout: L R C LFE Ls Rs
Sampling rate: 48.0 kHz
Frame rate: 31.250 FPS (1536 SPF)
Compression mode: Lossy
Stream size: 307 MiB (9%)
Title: MVO -TVShows
Language: Russian
Service kind: Complete Main
Default: Yes
Forced: No
AC3_metadata cmixlev: -4.5 dB
surmixlev: -6 dB

Audio #2
ID: 3
Format: AC-3
Format/Info: Audio Coding 3
Commercial name: Dolby Digital
Codec ID: A_AC3
Duration: 1 h 52 min
Bit rate mode: Constant
Bit rate: 384 kb/s
Channel (s): 6 channels
Channel layout: L R C LFE Ls Rs
Sampling rate: 48.0 kHz
Frame rate: 31.250 FPS (1536 SPF)
Compression mode: Lossy
Stream size: 308 MiB (9%)
Language: English
Service kind: Complete Main
Default: No
Forced: No
AC3_metadata cmixlev: -4.5 dB
surmixlev: -6 dB

Text #1
ID: 4
Format: UTF-8
Codec ID: S_TEXT/UTF8
Codec ID/Info: UTF-8 Plain Text
Duration: 1 h 48 min
Bit rate: 63 b/s
Frame rate: 0.256 FPS
Count of elements: 1664
Stream size: 50.5 KiB (0%)
Language: English (US)
Default: No
Forced: No

Text #2
ID: 5
Format: UTF-8
Codec ID: S_TEXT/UTF8
Codec ID/Info: UTF-8 Plain Text
Duration: 1 h 48 min
Bit rate: 70 b/s
Frame rate: 0.293 FPS
Count of elements: 1908
Stream size: 56.3 KiB (0%)
Title: SDH
Language: English (US)
Default: No
Forced: No

Menu
00:00:00.000: en: Scene 1
01:47:03.541: en: End Credits

Другие фильмы
У данной публикации пока нет комментариев.
Будь первым, оставь своё мнение в комментариях!
Информация
Посетители, находящиеся в группе Гости, не могут оставлять комментарии к данной публикации.
Самый популярный релиз недели
Донаты
Мы в соц. сетях / RSS

Лучшие релизы месяца
Лучшие SD недели
Лучшие 720p недели
Лучшие 1080p недели
Лучшие 4K недели
Вы недавно смотрели
Реклама
Последние комментарии
...

rmzshka

15 мая 2024 13:43

...

Andrey_Vladimirovich

13 мая 2024 18:12

...

Robot

13 мая 2024 16:53

...

rmzshka

13 мая 2024 16:21

...

supermehanik

13 мая 2024 02:03

Реклама