+11

Мятежная Луна, часть 1: Дитя огня / Rebel Moon - Part One: A Child of Fire (2023) WEB-DLRip 720p от DoMiNo & селезень | D

Информация о фильме
Название: Мятежная Луна, часть 1: Дитя огня
Оригинальное название: Rebel Moon - Part One: A Child of Fire
Год выпуска: 2023
Жанр: фантастика, боевик, драма, приключения
Режиссер: Зак Снайдер / Zack Snyder
В ролях: София Бутелла, Чарли Ханнэм, Стюарт Мартин, Кэри Элвис, Энтони Хопкинс, Эд Скрейн, Джимон Хонсу, Джена Мэлоун, Михиль Хаусман, Кори Столл, Пэ Ду На, Клеопатра Коулмэн, Альфонсо Эррера, Рэй Фишер, Даниэль Бургио, Макс Дикон, Триша Симмонс

О фильме:
В галактической империи Праматерь после убийства королевской семьи власть узурпировал коварный сенатор. На окраинах зарождается революция, поэтому среди планет курсирует боевой корабль под руководством безжалостного адмирала Нобла. Когда ищущие повстанцев прибывают на захолустную луну Велдт, чтобы пополнить запасы пищи, а также убивать и насиловать, они неожиданно наталкиваются на сопротивление — загадочная женщина по имени Кора, которую пару лет назад вытащил из обломков корабля местный фермер, оказывается беглянкой из военной элиты империи.

Выпущено: США / Grand Electric, The Stone Quarry
Продолжительность: 02:15:58
Перевод: Дубляж (неофициальный) - Red Head Sound
Субтитры: Русские (Forced, Full), английские

Файл
Формат: Matroska
Качество: WEB-DLRip 720p [Исх.WEB-DL-HEVC 2160p | 4K | SDR]
Видео: 1280x534 at 24.000 fps, [email protected], ~2397 kbps
Аудио 1: AC3, 6 ch, ~640 kbps - | Русский | Мятежная Луна, часть 1: Дитя огня / Rebel Moon - Part One: A Child of Fire (2023) WEB-DLRip 720p от DoMiNo & селезень | D
Аудио 2: AC3, 6 ch, ~640 kbps - | Английский |
Формат субтитров: softsub (SRT)

Авторизуйтесь для получения доступа к скачиванию

Нет аккаунта? Регистрация открыта и займёт меньше минуты

Вход Регистрация

x264 [info]: frame I: 1634 Avg QP: 14.08 size: 68271
x264 [info]: frame P: 43380 Avg QP: 16.70 size: 27877
x264 [info]: frame B: 150791 Avg QP: 18.84 size: 7454

General
Unique ID: 36276322172878851398500816151464844375 (0×1B4A90C58EE4E8802D40BB4ABF2F1C57)
Complete name: T: Rebel.Moon.Part.One.A.Child.of.Fire.2023.DUB.WEB-DLRip.720p.x264.seleZen.mkv
Format: Matroska
Format version: Version 4
File size: 3.49 GiB
Duration: 2 h 15 min
Overall bit rate: 3 680 kb/s
Frame rate: 24.000 FPS
Movie name: Rebel.Moon.Part.One.A.Child.of.Fire.2023.DUB.WEB-DLRip.720p.x264.seleZen
Encoded date: 19.04.2024 16:50:35 UTC
Writing application: mkvmerge v83.0 ('Circle Of Friends') 64-bit
Writing library: libebml v1.4.5 + libmatroska v1.7.1
Cover: Yes
Attachments: cover.jpg / small_cover.jpg

Video
ID: 1
Format: AVC
Format/Info: Advanced Video Codec
Format profile: [email protected]
Format settings: CABAC / 5 Ref Frames
Format settings, CABAC: Yes
Format settings, Reference: 5 frames
Codec ID: V_MPEG4/ISO/AVC
Duration: 2 h 15 min
Bit rate: 2 397 kb/s
Width: 1 280 pixels
Height: 534 pixels
Display aspect ratio: 2.40:1
Frame rate mode: Constant
Frame rate: 24.000 FPS
Color space: YUV
Chroma subsampling: 4:2:0
Bit depth: 8 bits
Scan type: Progressive
Bits/(Pixel*Frame): 0.146
Stream size: 2.28 GiB (65%)
Title: -=DoMiNo=-
Writing library: x264 core 164 r3190 -DoMiNo
Encoding settings: cabac=1 / ref=5 / deblock=1:-2:-1 / analyse=0×3:0×133 / me=umh / subme=10 / psy=1 / psy_rd=1.02:0.04 / mixed_ref=1 / me_range=32 / chroma_me=1 / trellis=2 / 8×8dct=1 / cqm=0 / deadzone=21,11 / fast_pskip=0 / chroma_qp_offset=-3 / threads=17 / lookahead_threads=4 / sliced_threads=0 / nr=0 / decimate=0 / interlaced=0 / bluray_compat=0 / constrained_intra=0 / bframes=12 / b_pyramid=2 / b_adapt=2 / b_bias=0 / direct=1 / weightb=1 / open_gop=0 / weightp=2 / keyint=240 / keyint_min=23 / scenecut=40 / intra_refresh=0 / rc_lookahead=60 / rc=crf / mbtree=0 / crf=17.5 / qcomp=0.60 / qpmin=0 / qpmax=69 / qpstep=4 / vbv_maxrate=50000 / vbv_bufsize=62500 / crf_max=0.0 / nal_hrd=none / filler=0 / ip_ratio=1.40 / pb_ratio=1.30 / aq=2:0.90
Language: English
Default: Yes
Forced: No
Color range: Limited
Color primaries: BT.709
Transfer characteristics: BT.709
Matrix coefficients: BT.709

Audio #1
ID: 2
Format: AC-3
Format/Info: Audio Coding 3
Commercial name: Dolby Digital
Codec ID: A_AC3
Duration: 2 h 15 min
Bit rate mode: Constant
Bit rate: 640 kb/s
Channel (s): 6 channels
Channel layout: L R C LFE Ls Rs
Sampling rate: 48.0 kHz
Frame rate: 31.250 FPS (1536 SPF)
Compression mode: Lossy
Stream size: 622 MiB (17%)
Title: Дубляж -Red Head Sound
Language: Russian
Service kind: Complete Main
Default: Yes
Forced: No
AC3_metadata cmixlev: -3.0 dB
surmixlev: -3 dB

Audio #2
ID: 3
Format: AC-3
Format/Info: Audio Coding 3
Commercial name: Dolby Digital
Codec ID: A_AC3
Duration: 2 h 15 min
Bit rate mode: Constant
Bit rate: 640 kb/s
Channel (s): 6 channels
Channel layout: L R C LFE Ls Rs
Sampling rate: 48.0 kHz
Frame rate: 31.250 FPS (1536 SPF)
Compression mode: Lossy
Stream size: 622 MiB (17%)
Title: Original
Language: English
Service kind: Complete Main
Default: No
Forced: No
AC3_metadata cmixlev: -4.5 dB
surmixlev: -6 dB

Text #1
ID: 4
Format: UTF-8
Codec ID: S_TEXT/UTF8
Codec ID/Info: UTF-8 Plain Text
Duration: 2 h 3 min
Bit rate: 0 b/s
Frame rate: 0.001 FPS
Count of elements: 11
Stream size: 688 Bytes (0%)
Title: Forced
Language: Russian
Default: No
Forced: No

Text #2
ID: 5
Format: UTF-8
Codec ID: S_TEXT/UTF8
Codec ID/Info: UTF-8 Plain Text
Duration: 2 h 12 min
Bit rate: 59 b/s
Frame rate: 0.142 FPS
Count of elements: 1135
Stream size: 57.6 KiB (0%)
Title: Full
Language: Russian
Default: No
Forced: No

Text #3
ID: 6
Format: UTF-8
Codec ID: S_TEXT/UTF8
Codec ID/Info: UTF-8 Plain Text
Duration: 32 min 15 s
Bit rate: 2 b/s
Frame rate: 0.009 FPS
Count of elements: 17
Stream size: 521 Bytes (0%)
Title: Forced
Language: English
Default: No
Forced: No

Text #4
ID: 7
Format: UTF-8
Codec ID: S_TEXT/UTF8
Codec ID/Info: UTF-8 Plain Text
Duration: 2 h 13 min
Bit rate: 48 b/s
Frame rate: 0.196 FPS
Count of elements: 1570
Stream size: 47.8 KiB (0%)
Title: SDH
Language: English
Default: No
Forced: No

Menu
00:00:00.000: en: Chapter 01
00:05:50.000: en: Chapter 02
00:11:40.000: en: Chapter 03
00:17:30.000: en: Chapter 04
00:23:20.000: en: Chapter 05
00:29:10.000: en: Chapter 06
00:35:00.000: en: Chapter 07
00:40:50.000: en: Chapter 08
00:46:40.000: en: Chapter 09
00:52:30.000: en: Chapter 10
00:58:20.000: en: Chapter 11
01:04:10.000: en: Chapter 12
01:10:00.000: en: Chapter 13
01:15:50.000: en: Chapter 14
01:21:40.000: en: Chapter 15
01:27:30.000: en: Chapter 16
01:33:20.000: en: Chapter 17
01:39:10.000: en: Chapter 18
01:45:00.000: en: Chapter 19
01:50:50.000: en: Chapter 20
01:56:40.000: en: Chapter 21
02:02:30.000: en: Chapter 22
02:08:20.000: en: Chapter 23
02:14:10.000: en: Chapter 24

Другие фильмы
У данной публикации пока нет комментариев.
Будь первым, оставь своё мнение в комментариях!
Информация
Посетители, находящиеся в группе Гости, не могут оставлять комментарии к данной публикации.
Самый популярный релиз недели
Донаты
Мы в соц. сетях / RSS

Лучшие релизы месяца
Лучшие SD недели
Лучшие 720p недели
Лучшие 1080p недели
Лучшие 4K недели
Вы недавно смотрели
Реклама
Последние комментарии
...

rmzshka

15 мая 2024 13:43

...

Andrey_Vladimirovich

13 мая 2024 18:12

...

Robot

13 мая 2024 16:53

...

rmzshka

13 мая 2024 16:21

...

supermehanik

13 мая 2024 02:03

Реклама