+8

Каменщик / The Bricklayer (2023) BDRip-AVC от DoMiNo & селезень | D

Информация о фильме
Название: Каменщик
Оригинальное название: The Bricklayer
Год выхода: 2023
Жанр: боевик, триллер
Режиссер: Ренни Харлин
В ролях: Аарон Экхарт, Нина Добрев, Клифтон Коллинз мл., Тим Блейк Нельсон, Ильфенеш Хадера, Оливер Тревена, Акис Сакеллариу, Ори Феффер, Джон Т. Вудс, Константин Адаев

О фильме:
Стив Уэйл по прозвищу Каменщик - один из лучших агентов ЦРУ, оставивший службу в прошлом. Но когда его старый знакомый организовывает серию убийств с целью подставить Управление, властям приходится вернуть Стива в игру. Теперь вместе с заносчивой напарницей Кейт они должны остановить опаснейшего противника, пока под угрозой не оказался весь мировой порядок.

Страна: США, Болгария, Греция
Студия: Eclectic Pictures Inc., Ekome, G-BASE, Millennium Films, Millennium Media, Nu Boyana Film Studios
Продолжительность: 01:49:58
Перевод: Дублированный | Мосфильм-Мастер
Субтитры: Русские (full), английские (Full, SDH)

Файл
Формат: Matroska
Качество: BDRip-AVC [исх.The Bricklayer 2023 1080p BluRay REMUX AVC DTS-HD MA 5 1-PiRaTeS]
Видео: 1046x438 at 23.976 fps, [email protected], ~1455 kbps
Аудио: AC3, 6 ch, ~448 kbps - | Русский | Каменщик / The Bricklayer (2023) BDRip-AVC от DoMiNo & селезень | D
Формат субтитров: softsub (SRT)

Авторизуйтесь для получения доступа к скачиванию

Нет аккаунта? Регистрация открыта и займёт меньше минуты

Вход Регистрация

General
Unique ID: 178510904430226475745490204679268550683 (0×864BF31A9205B7C9BC6F17D905ED481B)
Complete name: I: The.Bricklayer.2023.DUB.BDRip.x264.seleZen.mkv
Format: Matroska
Format version: Version 4
File size: 1.46 GiB
Duration: 1 h 49 min
Overall bit rate: 1 903 kb/s
Frame rate: 23.976 FPS
Movie name: The.Bricklayer.2023.DUB.BDRip.x264.seleZen
Encoded date: 20.04.2024 12:25:34 UTC
Writing application: mkvmerge v83.0 ('Circle Of Friends') 64-bit
Writing library: libebml v1.4.5 + libmatroska v1.7.1
Cover: Yes
Attachments: cover.jpg / small_cover.jpg

Video
ID: 1
Format: AVC
Format/Info: Advanced Video Codec
Format profile: [email protected]
Format settings: CABAC / 14 Ref Frames
Format settings, CABAC: Yes
Format settings, Reference: 14 frames
Codec ID: V_MPEG4/ISO/AVC
Duration: 1 h 49 min
Bit rate: 1 455 kb/s
Width: 1 046 pixels
Height: 438 pixels
Display aspect ratio: 2.39:1
Frame rate mode: Constant
Frame rate: 23.976 (24000/1001) FPS
Color space: YUV
Chroma subsampling: 4:2:0
Bit depth: 8 bits
Scan type: Progressive
Bits/(Pixel*Frame): 0.132
Stream size: 1.12 GiB (76%)
Title: -=DoMiNo=-
Writing library: x264 core 164 r3190 -DoMiNo
Encoding settings: cabac=1 / ref=14 / deblock=1:-2:-2 / analyse=0×3:0×133 / me=umh / subme=10 / psy=1 / psy_rd=1.00:0.00 / mixed_ref=1 / me_range=32 / chroma_me=1 / trellis=2 / 8×8dct=1 / cqm=0 / deadzone=21,11 / fast_pskip=0 / chroma_qp_offset=-2 / threads=14 / lookahead_threads=3 / sliced_threads=0 / nr=0 / decimate=0 / interlaced=0 / bluray_compat=0 / constrained_intra=0 / bframes=14 / b_pyramid=2 / b_adapt=2 / b_bias=0 / direct=3 / weightb=1 / open_gop=0 / weightp=2 / keyint=240 / keyint_min=23 / scenecut=40 / intra_refresh=0 / rc_lookahead=60 / rc=2pass / mbtree=0 / bitrate=1455 / ratetol=1.0 / qcomp=0.70 / qpmin=0 / qpmax=69 / qpstep=4 / cplxblur=20.0 / qblur=0.5 / vbv_maxrate=50000 / vbv_bufsize=62500 / nal_hrd=none / filler=0 / ip_ratio=1.20 / pb_ratio=1.30 / aq=3:0.80
Language: English
Default: Yes
Forced: No
Color range: Limited
Color primaries: BT.709
Transfer characteristics: BT.709
Matrix coefficients: BT.709

Audio
ID: 2
Format: AC-3
Format/Info: Audio Coding 3
Commercial name: Dolby Digital
Codec ID: A_AC3
Duration: 1 h 49 min
Bit rate mode: Constant
Bit rate: 448 kb/s
Channel (s): 6 channels
Channel layout: L R C LFE Ls Rs
Sampling rate: 48.0 kHz
Frame rate: 31.250 FPS (1536 SPF)
Compression mode: Lossy
Stream size: 352 MiB (24%)
Title: Dub -Мосфильм-Мастер
Language: Russian
Service kind: Complete Main
Default: Yes
Forced: No
AC3_metadata cmixlev: -4.5 dB
surmixlev: -6 dB

Text #1
ID: 3
Format: UTF-8
Codec ID: S_TEXT/UTF8
Codec ID/Info: UTF-8 Plain Text
Duration: 1 h 41 min
Bit rate: 69 b/s
Frame rate: 0.185 FPS
Count of elements: 1130
Stream size: 51.5 KiB (0%)
Language: Russian
Default: No
Forced: No

Text #2
ID: 4
Format: UTF-8
Codec ID: S_TEXT/UTF8
Codec ID/Info: UTF-8 Plain Text
Duration: 1 h 39 min
Bit rate: 43 b/s
Frame rate: 0.180 FPS
Count of elements: 1068
Stream size: 31.2 KiB (0%)
Language: English
Default: No
Forced: No

Text #3
ID: 5
Format: UTF-8
Codec ID: S_TEXT/UTF8
Codec ID/Info: UTF-8 Plain Text
Duration: 1 h 39 min
Bit rate: 45 b/s
Frame rate: 0.195 FPS
Count of elements: 1165
Stream size: 33.2 KiB (0%)
Title: SDH
Language: English
Default: No
Forced: No

Menu
00:00:00.000: en: Chapter 01
00:09:14.763: en: Chapter 02
00:18:15.845: en: Chapter 03
00:27:17.761: en: Chapter 04
00:36:51.543: en: Chapter 05
00:45:10.499: en: Chapter 06
00:52:56.131: en: Chapter 07
01:02:28.787: en: Chapter 08
01:12:36.018: en: Chapter 09
01:21:06.320: en: Chapter 10
01:30:35.597: en: Chapter 11
01:40:19.680: en: Chapter 12
01:49:58.592: en: Chapter 13

Другие фильмы
У данной публикации пока нет комментариев.
Будь первым, оставь своё мнение в комментариях!
Информация
Посетители, находящиеся в группе Гости, не могут оставлять комментарии к данной публикации.
Самый популярный релиз недели
Донаты
Мы в соц. сетях / RSS

Лучшие релизы месяца
Лучшие SD недели
Лучшие 720p недели
Лучшие 1080p недели
Лучшие 4K недели
Вы недавно смотрели
Реклама
Последние комментарии
...

rmzshka

15 мая 2024 13:43

...

Andrey_Vladimirovich

13 мая 2024 18:12

...

Robot

13 мая 2024 16:53

...

rmzshka

13 мая 2024 16:21

...

supermehanik

13 мая 2024 02:03

Реклама