+12

Под мостом / Under the Bridge [01x01-07 из 08] (2024) WEB-DLRip-AVC от DoMiNo & селезень | P

Информация о сериале
Название: Под мостом
Оригинальное название: Under the Bridge
Год выхода: 2024
Жанр: Триллер, драма, криминал, детектив, биография
Режиссер: Нимиша Мукерджи, Гита Васант Пател
В ролях: Райли Кио, Лили Гладстоун, Арчи Панджаби, Мэтт Крэйвен, Ануп Десаи, Майкл Бьюи, Элла Диксон, Ивэн Рейн, Брайан Маркинсон

О сериале:
В центре событий оказывается канадская писательница Ребекка Годфри, которая невольно была втянута в расследование жестокого преступления. Жертвой стала школьница по имени Рина Вирк. Под подозрение сразу попали восемь подростков, которые нашли в себе силы лично побеседовать с писательницей и рассказать ей всю правду о том, что случилось на самом деле. Вечером в пятницу, 14 ноября 1997 года, Рину Вирк позвали на «вечеринку» неподалеку от моста Крейгфлауэр в городе Саанич. Там собиралось множество подростков, которые употребляли алкоголь и запрещенные вещества...

Страна: США
Студия: ABC Signature, Best Day Ever Productions, Felix Culpa
Продолжительность: ~00:45:00 серия
Перевод: Профессиональный (многоголосый закадровый) | HDRezka Studio
Субтитры: Русские (Forced), английские (Full, SDH)

Файл
Формат: Matroska
Качество: WEB-DLRip-AVC
Видео: 1024x428 at 23.976 fps, [email protected], ~1600 kbps
Аудио: AAC, 2 ch, ~128 kbps - | Русский | Под мостом / Under the Bridge [01x01-07 из 08] (2024) WEB-DLRip-AVC от DoMiNo & селезень | P
Формат субтитров: softsub (SRT)

Авторизуйтесь для получения доступа к скачиванию

Нет аккаунта? Регистрация открыта и займёт меньше минуты

Вход Регистрация

x264 [info]: frame I: 627 Avg QP: 12.72 size: 59419
x264 [info]: frame P: 14805 Avg QP: 14.81 size: 20137
x264 [info]: frame B: 52846 Avg QP: 16.32 size: 4418

General
Unique ID: 74837685316812461989837145598832333715 (0×384D36C2F04BA844E9296FE47B22D393)
Complete name: E: Under.the.Bridge.S01.2024.WEB-DLRip.x264.seleZenUnder.the.Bridge.S01E02.WEB-DLRip.x264.seleZen.mkv
Format: Matroska
Format version: Version 4
File size: 586 MiB
Duration: 47 min 27 s
Overall bit rate: 1 726 kb/s
Frame rate: 23.976 FPS
Movie name: Under.the.Bridge.S01E02.WEB-DLRip.x264.seleZen
Encoded date: 21.04.2024 10:35:21 UTC
Writing application: mkvmerge v83.0 ('Circle Of Friends') 64-bit
Writing library: libebml v1.4.5 + libmatroska v1.7.1
Cover: Yes
Attachments: cover.jpg / small_cover.jpg

Video
ID: 1
Format: AVC
Format/Info: Advanced Video Codec
Format profile: [email protected]
Format settings: CABAC / 10 Ref Frames
Format settings, CABAC: Yes
Format settings, Reference: 10 frames
Codec ID: V_MPEG4/ISO/AVC
Duration: 47 min 27 s
Bit rate: 1 600 kb/s
Width: 1 024 pixels
Height: 428 pixels
Display aspect ratio: 2.39:1
Frame rate mode: Constant
Frame rate: 23.976 (24000/1001) FPS
Color space: YUV
Chroma subsampling: 4:2:0
Bit depth: 8 bits
Scan type: Progressive
Bits/(Pixel*Frame): 0.152
Stream size: 543 MiB (93%)
Title: -=DoMiNo=-
Writing library: x264 core 164 r3190 -DoMiNo
Encoding settings: cabac=1 / ref=10 / deblock=1:-2:-1 / analyse=0×3:0×133 / me=umh / subme=10 / psy=1 / psy_rd=1.00:0.15 / mixed_ref=1 / me_range=32 / chroma_me=1 / trellis=2 / 8×8dct=1 / cqm=0 / deadzone=21,11 / fast_pskip=0 / chroma_qp_offset=-3 / threads=13 / lookahead_threads=3 / sliced_threads=0 / nr=0 / decimate=0 / interlaced=0 / bluray_compat=0 / constrained_intra=0 / bframes=10 / b_pyramid=2 / b_adapt=2 / b_bias=0 / direct=3 / weightb=1 / open_gop=0 / weightp=2 / keyint=240 / keyint_min=23 / scenecut=40 / intra_refresh=0 / rc_lookahead=60 / rc=2pass / mbtree=0 / bitrate=1600 / ratetol=1.0 / qcomp=0.70 / qpmin=0 / qpmax=69 / qpstep=4 / cplxblur=20.0 / qblur=0.5 / vbv_maxrate=50000 / vbv_bufsize=62500 / nal_hrd=none / filler=0 / ip_ratio=1.20 / pb_ratio=1.30 / aq=3:0.90
Language: English
Default: Yes
Forced: No
Color range: Limited
Color primaries: BT.709
Transfer characteristics: BT.709
Matrix coefficients: BT.709

Audio
ID: 2
Format: AAC LC
Format/Info: Advanced Audio Codec Low Complexity
Codec ID: A_AAC-2
Duration: 47 min 27 s
Bit rate: 125 kb/s
Channel (s): 2 channels
Channel layout: L R
Sampling rate: 48.0 kHz
Frame rate: 46.875 FPS (1024 SPF)
Compression mode: Lossy
Stream size: 42.6 MiB (7%)
Title: HDRezka Studio
Language: Russian
Default: Yes
Forced: No

Text #1
ID: 3
Format: UTF-8
Codec ID: S_TEXT/UTF8
Codec ID/Info: UTF-8 Plain Text
Duration: 46 min 5 s
Bit rate: 4 b/s
Frame rate: 0.008 FPS
Count of elements: 23
Stream size: 1.49 KiB (0%)
Title: Russian [Forced]
Language: Russian
Default: No
Forced: No

Text #2
ID: 4
Format: UTF-8
Codec ID: S_TEXT/UTF8
Codec ID/Info: UTF-8 Plain Text
Duration: 47 min 10 s
Bit rate: 52 b/s
Frame rate: 0.210 FPS
Count of elements: 594
Stream size: 18.3 KiB (0%)
Title: English
Language: English
Default: No
Forced: No

Text #3
ID: 5
Format: UTF-8
Codec ID: S_TEXT/UTF8
Codec ID/Info: UTF-8 Plain Text
Duration: 47 min 13 s
Bit rate: 69 b/s
Frame rate: 0.278 FPS
Count of elements: 789
Stream size: 24.1 KiB (0%)
Title: English SDH
Language: English
Default: No
Forced: No

Menu
00:46:28.202: en: Credits

Другие фильмы
Комментарии:

...
Andrey_Vladimirovich 13 мая 2024 18:12
0

Странно. Рип ваш, а на другом ресурсе уже предоставлено 5 серий.

Информация
Посетители, находящиеся в группе Гости, не могут оставлять комментарии к данной публикации.
Самый популярный релиз недели
Донаты
Мы в соц. сетях / RSS

Лучшие релизы месяца
Лучшие SD недели
Лучшие 720p недели
Лучшие 1080p недели
Лучшие 4K недели
Вы недавно смотрели
Реклама
Последние комментарии
...

rmzshka

15 мая 2024 13:43

...

Andrey_Vladimirovich

13 мая 2024 18:12

...

Robot

13 мая 2024 16:53

...

rmzshka

13 мая 2024 16:21

...

supermehanik

13 мая 2024 02:03

Реклама