+11

Сорвать банк / Cash Out (2024) BDRip 720p от DoMiNo & селезень | D, P2

u]Информация о фильме[/u]
Название: Сорвать банк
Оригинальное название: Cash Out
Год выхода: 2024
Жанр: Боевик
Режиссер: Ives
В ролях: Джон Траволта, Кристин Дэвис, Лукас Хаас, Quavo, Victorya Brandart, Деми Кастро, Joel Cohen, Луис Да Силва мл., Джейк Элленц, Мэтт Джералд

О фильме:
Профессиональный вор Мейсон вместе с братом планирует свое самое крупное дело — ограбление банка. Когда все идет не так, они оказываются запертыми внутри в окружении сотрудников полиции. Пока ситуация накаляется, Мейсон ведет переговоры с ведущим переговорщиком — своей бывшей любовницей.

Выпущено: США, BondIt Media Capital, Convergence Entertainment Group
Продолжительность: 01:30:11
Перевод 1: Дублированный | Pride Production
Перевод 2: Профессиональный (двухголосый, закадровый) | ViruseProject 18 +
Субтитры: Русские (Forced, Full), английские

Файл
Формат: Matroska
Качество: BDRip 720p | [Исх.Cash Out 2024 DUAL COMPLETE BLURAY-FULLSiZE]
Видео: 1280x536 at 24.000 fps, [email protected], ~5119 kbps
Аудио 1: AC3, 6 ch, ~448 kbps - | Русский | Сорвать банк / Cash Out (2024) BDRip 720p от DoMiNo & селезень | D, P2 | Pride Production
Аудио 2: AC3, 6 ch, ~640 kbps - | Русский | | ViruseProject
Аудио 3: AC3, 6 ch, ~640 kbps - | Английский | | Original
Формат субтитров: softsub (SRT)

Авторизуйтесь для получения доступа к скачиванию

Нет аккаунта? Регистрация открыта и займёт меньше минуты

Вход Регистрация

x264 [info]: frame I:870 Avg QP:18.36 size: 86535
x264 [info]: frame P:24474 Avg QP:19.39 size: 51219
x264 [info]: frame B:104526 Avg QP:21.81 size: 20412
x264 [info]: consecutive B-frames: 1.6% 1.3% 3.8% 10.4% 15.8% 47.1% 9.2% 3.0% 1.9% 1.7% 1.5% 0.2% 0.8% 1.4% 0.2%

General
Unique ID : 75001093128815623972028775674626956116 (0x386CAF637D9862005F6BBBC5FE5FDB54)
Complete name : S:Cash.Out.2024.BDRip.720p.x264.seleZen.mkv
Format : Matroska
Format version : Version 4
File size : 4.31 GiB
Duration : 1 h 30 min
Overall bit rate : 6 849 kb/s
Frame rate : 24.000 FPS
Movie name : Cash.Out.2024.BDRip.720p.x264.seleZen
Encoded date : 2024-05-25 16:31:59 UTC
Writing application : mkvmerge v84.0 ('Sleeper') 64-bit
Writing library : libebml v1.4.5 + libmatroska v1.7.1
Cover : Yes
Attachments : cover.jpg / small_cover.jpg

Video
ID : 1
Format : AVC
Format/Info : Advanced Video Codec
Format profile : [email protected]
Format settings : CABAC / 12 Ref Frames
Format settings, CABAC : Yes
Format settings, Reference : 12 frames
Codec ID : V_MPEG4/ISO/AVC
Duration : 1 h 30 min
Bit rate : 5 119 kb/s
Width : 1 280 pixels
Height : 536 pixels
Display aspect ratio : 2.39:1
Frame rate mode : Constant
Frame rate : 24.000 FPS
Color space : YUV
Chroma subsampling : 4:2:0
Bit depth : 8 bits
Scan type : Progressive
Bits/(Pixel*Frame) : 0.311
Stream size : 3.22 GiB (75%)
Title : -=DoMiNo=-
Writing library : x264 core 164 r3191 -DoMiNo
Encoding settings : cabac=1 / ref=12 / deblock=1:-2:-2 / analyse=0x3:0x133 / me=umh / subme=10 / psy=1 / psy_rd=1.00:0.00 / mixed_ref=1 / me_range=32 / chroma_me=1 / trellis=2 / 8x8dct=1 / cqm=0 / deadzone=21,11 / fast_pskip=0 / chroma_qp_offset=-2 / threads=17 / lookahead_threads=4 / sliced_threads=0 / nr=0 / decimate=1 / interlaced=0 / bluray_compat=0 / constrained_intra=0 / bframes=14 / b_pyramid=2 / b_adapt=2 / b_bias=0 / direct=3 / weightb=1 / open_gop=0 / weightp=2 / keyint=240 / keyint_min=24 / scenecut=40 / intra_refresh=0 / rc_lookahead=60 / rc=crf / mbtree=0 / crf=20.0 / qcomp=0.60 / qpmin=0 / qpmax=69 / qpstep=4 / vbv_maxrate=50000 / vbv_bufsize=62500 / crf_max=0.0 / nal_hrd=none / filler=0 / ip_ratio=1.40 / pb_ratio=1.30 / aq=3:0.80
Language : English
Default : Yes
Forced : No

Audio #1
ID : 2
Format : AC-3
Format/Info : Audio Coding 3
Commercial name : Dolby Digital
Codec ID : A_AC3
Duration : 1 h 30 min
Bit rate mode : Constant
Bit rate : 448 kb/s
Channel(s) : 6 channels
Channel layout : L R C LFE Ls Rs
Sampling rate : 48.0 kHz
Frame rate : 31.250 FPS (1536 SPF)
Compression mode : Lossy
Stream size : 289 MiB (7%)
Title : DUB -Pride Production
Language : Russian
Service kind : Complete Main
Default : Yes
Forced : No
Dialog Normalization : -31 dB
compr : -0.28 dB
cmixlev : -3.0 dB
surmixlev : -3 dB
dmixmod : Lo/Ro
ltrtcmixlev : -3.0 dB
ltrtsurmixlev : -3.0 dB
lorocmixlev : -3.0 dB
lorosurmixlev : -3.0 dB
dialnorm_Average : -31 dB
dialnorm_Minimum : -31 dB
dialnorm_Maximum : -31 dB

Audio #2
ID : 3
Format : AC-3
Format/Info : Audio Coding 3
Commercial name : Dolby Digital
Codec ID : A_AC3
Duration : 1 h 30 min
Bit rate mode : Constant
Bit rate : 640 kb/s
Channel(s) : 6 channels
Channel layout : L R C LFE Ls Rs
Sampling rate : 48.0 kHz
Frame rate : 31.250 FPS (1536 SPF)
Compression mode : Lossy
Stream size : 412 MiB (9%)
Title : DVO -ViruseProject
Language : Russian
Service kind : Complete Main
Default : No
Forced : No
Dialog Normalization : -27 dB
compr : -8.52 dB
cmixlev : -3.0 dB
surmixlev : -3 dB
mixlevel : 285 dB
roomtyp : 3
ltrtcmixlev : -3.0 dB
ltrtsurmixlev : -3.0 dB
lorocmixlev : -3.0 dB
lorosurmixlev : -4.5 dB
dialnorm_Average : -27 dB
dialnorm_Minimum : -27 dB
dialnorm_Maximum : -27 dB

Audio #3
ID : 4
Format : AC-3
Format/Info : Audio Coding 3
Commercial name : Dolby Digital
Codec ID : A_AC3
Duration : 1 h 30 min
Bit rate mode : Constant
Bit rate : 640 kb/s
Channel(s) : 6 channels
Channel layout : L R C LFE Ls Rs
Sampling rate : 48.0 kHz
Frame rate : 31.250 FPS (1536 SPF)
Compression mode : Lossy
Stream size : 413 MiB (9%)
Title : Original
Language : English
Service kind : Complete Main
Default : No
Forced : No
Dialog Normalization : -31 dB
cmixlev : -4.5 dB
surmixlev : -6 dB
dialnorm_Average : -31 dB
dialnorm_Minimum : -31 dB
dialnorm_Maximum : -31 dB

Text #1
ID : 5
Format : UTF-8
Codec ID : S_TEXT/UTF8
Codec ID/Info : UTF-8 Plain Text
Duration : 1 h 24 min
Bit rate : 1 b/s
Frame rate : 0.005 FPS
Count of elements : 24
Stream size : 784 Bytes (0%)
Title : Forced
Language : Russian
Default : No
Forced : No

Text #2
ID : 6
Format : UTF-8
Codec ID : S_TEXT/UTF8
Codec ID/Info : UTF-8 Plain Text
Duration : 1 h 24 min
Bit rate : 90 b/s
Frame rate : 0.299 FPS
Count of elements : 1509
Stream size : 55.5 KiB (0%)
Title : Full
Language : Russian
Default : No
Forced : No

Text #3
ID : 7
Format : UTF-8
Codec ID : S_TEXT/UTF8
Codec ID/Info : UTF-8 Plain Text
Duration : 1 h 22 min
Bit rate : 65 b/s
Frame rate : 0.279 FPS
Count of elements : 1384
Stream size : 39.9 KiB (0%)
Title : Full
Language : English
Default : No
Forced : No

Menu
00:00:00.000 : Chapter 1
00:07:53.541 : Chapter 2
00:14:24.291 : Chapter 3
00:21:16.708 : Chapter 4
00:28:29.541 : Chapter 5
00:36:39.750 : Chapter 6
00:42:38.458 : Chapter 7
00:49:22.083 : Chapter 8
00:56:31.541 : Chapter 9
01:02:39.291 : Chapter 10
01:10:04.208 : Chapter 11
01:17:03.250 : Chapter 12
01:25:35.583 : Chapter 13
01:30:10.250 : Chapter 14

Другие фильмы
У данной публикации пока нет комментариев.
Будь первым, оставь своё мнение в комментариях!
Информация
Посетители, находящиеся в группе Гости, не могут оставлять комментарии к данной публикации.
Самый популярный релиз недели
Донаты
Мы в соц. сетях / RSS

Лучшие релизы месяца
Лучшие SD недели
Лучшие 720p недели
Лучшие 1080p недели
Лучшие 4K недели
Вы недавно смотрели
Реклама
Последние комментарии
...

Bonzo

14 июня 2024 14:52

...

rmzshka

13 июня 2024 17:48

...

rmzshka

13 июня 2024 12:24

...

LisNick

13 июня 2024 08:45

...

SkySpirit

8 июня 2024 19:54

Реклама