+8

Я - кот / Cicaverzum (2023) WEB-DLRip 720p от DoMiNo & селезень | D

Информация о фильме
Название: Я — кот
Оригинальное название: Cicaverzum
Год выпуска: 2023
Жанр: Комедия, мелодрама, драма
Режиссер: Розалия Селецки
В ролях: Франциска Тёрёчик, Мартон Паткош, Цаба Полгар, Адель Чобот, Гергей Блахо, Анталь Агатич, Роберт Альфёльди, Балинт Меньхерт Бан, Золтан Фриденталь, Ласло Гёндёр, Аладар Хорват, Жофия Кемень, Тибор Кишш, Анна Кором, Аттила Лестян

О фильме:
Фани 30 лет, и ее личная жизнь — полная катастрофа. Дело в том, что у девушки слишком сильно развито воображение, что становится причиной всех ее проблем. По какой-то причине Фани представляет себе смерть каждого мужчины, которого считает симпатичным, с которым идет на свидание и на развитие отношений с которым рассчитывает. Боясь, что такое действительно может произойти, она не позволяет себе влюбляться и бежит от отношений. Однако все меняется, когда она знакомится с очаровательным говорящим черным котом, который не только понимает Фани, но и не прочь за ней поухаживать. «Я — кот» (2023) — венгерская романтическая комедия с Франциской Теречик в главной роли.

Выпущено: Венгрия, Lupa Pictures
Продолжительность: 01:31:26
Перевод: Дублированный | Leff Sound

Файл
Формат: Matroska
Качество: WEB-DLRip 720p
Видео: 1280×536 at 23.976 fps, [email protected], ~1960 kbps
Аудио: AC3, 6 ch, ~384 kbps — | Русский | Я - кот / Cicaverzum (2023) WEB-DLRip 720p от DoMiNo & селезень | D
Субтитры: Нет

Авторизуйтесь для получения доступа к скачиванию

Нет аккаунта? Регистрация открыта и займёт меньше минуты

Вход Регистрация

General
Unique ID: 273602412698750728364127919260021845869 (0xCDD5E86F3C2AE7BEF7AE08D7FCB86F6D)
Complete name: I: Cicaverzum.2023.DUB.WEB-DLRip.720p.x264.seleZen.mkv
Format: Matroska
Format version: Version 4
File size: 1.50 GiB
Duration: 1 h 31 min
Overall bit rate: 2 346 kb/s
Frame rate: 24.000 FPS
Movie name: Cicaverzum.2023.DUB.WEB-DLRip.720p.x264.seleZen
Encoded date: 06.05.2024 09:21:21 UTC
Writing application: mkvmerge v84.0 ('Sleeper') 64-bit
Writing library: libebml v1.4.5 + libmatroska v1.7.1
Cover: Yes
Attachments: cover.jpg / small_cover.jpg

Video
ID: 1
Format: AVC
Format/Info: Advanced Video Codec
Format profile: [email protected]
Format settings: CABAC / 5 Ref Frames
Format settings, CABAC: Yes
Format settings, Reference: 5 frames
Codec ID: V_MPEG4/ISO/AVC
Duration: 1 h 31 min
Bit rate: 1 960 kb/s
Width: 1 280 pixels
Height: 536 pixels
Display aspect ratio: 2.39:1
Frame rate mode: Constant
Frame rate: 24.000 FPS
Color space: YUV
Chroma subsampling: 4:2:0
Bit depth: 8 bits
Scan type: Progressive
Bits/(Pixel*Frame): 0.119
Stream size: 1.25 GiB (84%)
Title: -=DoMiNo=-
Writing library: x264 core 164 r3190 -DoMiNo
Encoding settings: cabac=1 / ref=5 / deblock=1:-1:-1 / analyse=0×3:0×133 / me=umh / subme=10 / psy=1 / psy_rd=1.00:0.15 / mixed_ref=1 / me_range=32 / chroma_me=1 / trellis=2 / 8×8dct=1 / cqm=0 / deadzone=21,11 / fast_pskip=0 / chroma_qp_offset=-3 / threads=17 / lookahead_threads=4 / sliced_threads=0 / nr=0 / decimate=1 / interlaced=0 / bluray_compat=0 / constrained_intra=0 / bframes=12 / b_pyramid=2 / b_adapt=2 / b_bias=0 / direct=3 / weightb=1 / open_gop=0 / weightp=2 / keyint=240 / keyint_min=24 / scenecut=40 / intra_refresh=0 / rc_lookahead=60 / rc=crf / mbtree=0 / crf=18.3 / qcomp=0.60 / qpmin=0 / qpmax=69 / qpstep=4 / vbv_maxrate=50000 / vbv_bufsize=62500 / crf_max=0.0 / nal_hrd=none / filler=0 / ip_ratio=1.40 / pb_ratio=1.30 / aq=1:0.90
Language: English
Default: Yes
Forced: No
Color range: Limited
Color primaries: BT.709
Transfer characteristics: BT.709
Matrix coefficients: BT.709

Audio
ID: 2
Format: AC-3
Format/Info: Audio Coding 3
Commercial name: Dolby Digital
Codec ID: A_AC3
Duration: 1 h 31 min
Bit rate mode: Constant
Bit rate: 384 kb/s
Channel (s): 6 channels
Channel layout: L R C LFE Ls Rs
Sampling rate: 48.0 kHz
Frame rate: 31.250 FPS (1536 SPF)
Compression mode: Lossy
Stream size: 251 MiB (16%)
Title: Дублированный | Leff Sound
Language: Russian
Service kind: Complete Main
Default: Yes
Forced: No
AC3_metadata cmixlev: -3.0 dB
surmixlev: -3 dB

Menu
00:00:00.000: en: Chapter 01
00:05:50.000: en: Chapter 02
00:11:40.000: en: Chapter 03
00:17:30.000: en: Chapter 04
00:23:20.000: en: Chapter 05
00:29:10.000: en: Chapter 06
00:35:00.000: en: Chapter 07
00:40:50.000: en: Chapter 08
00:46:40.000: en: Chapter 09
00:52:30.000: en: Chapter 10
00:58:20.000: en: Chapter 11
01:04:10.000: en: Chapter 12
01:10:00.000: en: Chapter 13
01:15:50.000: en: Chapter 14
01:21:40.000: en: Chapter 15
01:27:30.000: en: Chapter 16

Другие фильмы
У данной публикации пока нет комментариев.
Будь первым, оставь своё мнение в комментариях!
Информация
Посетители, находящиеся в группе Гости, не могут оставлять комментарии к данной публикации.
Самый популярный релиз недели
Донаты
Мы в соц. сетях / RSS

Лучшие релизы месяца
Лучшие SD недели
Лучшие 720p недели
Лучшие 1080p недели
Лучшие 4K недели
Вы недавно смотрели
Реклама
Последние комментарии
...

Bonzo

14 июня 2024 14:52

...

rmzshka

13 июня 2024 17:48

...

rmzshka

13 июня 2024 12:24

...

LisNick

13 июня 2024 08:45

...

SkySpirit

8 июня 2024 19:54

Реклама