+5

Мысль о тебе / The Idea of You (2024) WEB-DL 720p от селезень | P

Информация о фильме
Название: Мысль о тебе
Оригинальное название: The Idea of You
Год выпуска: 2024
Жанр: драма, мелодрама
Режиссер: Майкл Шоуолтер / Michael Showalter
В ролях: Энн Хэтэуэй, Николас Голицын, Элла Рубин, Энни Мумоло, Рейд Скотт, Перри Мэттфелд, Джордан Холл, Матильда Джанопулос, Мэг Миллидж, Чич Манохар

О фильме:
Накануне своего 40-летия лос-анджелесская галеристка Солен везет 16-летнюю дочь Иззи на фестиваль Coachella. Бывший муж купил дочке и её друзьям билеты на фан-встречу с бойз-бендом August Moon, по которому те сохли в седьмом классе. Солен случайно знакомится с одним из участников группы, 24-летним англичанином Хейсом, и вскоре он появляется на пороге её галереи в окружении телохранителей и папарацци.

Выпущено: США / Amazon Studios, I'll Have Another, Somewhere Pictures, Welle Entertainment
Продолжительность: 01:57:41
Перевод: Профессиональный (многоголосый, закадровый) | TVShows (Thx. SunOfABeach)
Субтитры: Английские (Full, SDH)

Файл
Формат: Matroska
Качество: WEB-DL 720p | AMZN
Видео: 1248x640 at 23.976 fps, MPEG-4 AVC, ~3464 kbps
Аудио 1: AC3, 6 ch, ~384 kbps - | Русский | Мысль о тебе / The Idea of You (2024) WEB-DL 720p от селезень | P
Аудио 2: E-AC3 JOC, 6 ch, 576 kbps - | Английский |
Формат субтитров: softsub (SRT)

Авторизуйтесь для получения доступа к скачиванию

Нет аккаунта? Регистрация открыта и займёт меньше минуты

Вход Регистрация

General
Unique ID: 175661653998713099834015040970338367145 (0×842734362D3D81555148330852C076A9)
Complete name: T: The.Idea.of.You.2024.MVO.WEB-DL.720p.x264.seleZen.mkv
Format: Matroska
Format version: Version 4
File size: 3.64 GiB
Duration: 1 h 57 min
Overall bit rate: 4 427 kb/s
Frame rate: 24.000 FPS
Movie name: The.Idea.of.You.2024.MVO.WEB-DL.720p.x264.seleZen
Encoded date: 10.05.2024 19:18:24 UTC
Writing application: mkvmerge v84.0 ('Sleeper') 64-bit
Writing library: libebml v1.4.5 + libmatroska v1.7.1
Cover: Yes
Attachments: cover.jpg / small_cover.jpg

Video
ID: 1
Format: AVC
Format/Info: Advanced Video Codec
Format profile: [email protected]
Format settings: CABAC / 4 Ref Frames
Format settings, CABAC: Yes
Format settings, Reference: 4 frames
Codec ID: V_MPEG4/ISO/AVC
Duration: 1 h 57 min
Bit rate mode: Constant
Bit rate: 3 464 kb/s
Nominal bit rate: 4 000 kb/s
Width: 1 280 pixels
Height: 640 pixels
Display aspect ratio: 2.000
Frame rate mode: Constant
Frame rate: 24.000 FPS
Color space: YUV
Chroma subsampling: 4:2:0
Bit depth: 8 bits
Scan type: Progressive
Bits/(Pixel*Frame): 0.176
Stream size: 2.85 GiB (78%)
Title: -=DoMiNo=-
Language: English (US)
Default: Yes
Forced: No
Color range: Limited
Color primaries: BT.709
Transfer characteristics: BT.709
Matrix coefficients: BT.709

Audio #1
ID: 2
Format: AC-3
Format/Info: Audio Coding 3
Commercial name: Dolby Digital
Codec ID: A_AC3
Duration: 1 h 57 min
Bit rate mode: Constant
Bit rate: 384 kb/s
Channel (s): 6 channels
Channel layout: L R C LFE Ls Rs
Sampling rate: 48.0 kHz
Frame rate: 31.250 FPS (1536 SPF)
Compression mode: Lossy
Stream size: 323 MiB (9%)
Title: MVO -TVShows
Language: Russian
Service kind: Complete Main
Default: Yes
Forced: No
Dialog Normalization: -31 dB
cmixlev: -4.5 dB
surmixlev: -6 dB
dialnorm_Average: -31 dB
dialnorm_Minimum: -31 dB
dialnorm_Maximum: -31 dB

Audio #2
ID: 3
Format: E-AC-3 JOC
Format/Info: Enhanced AC-3 with Joint Object Coding
Commercial name: Dolby Digital Plus with Dolby Atmos
Codec ID: A_EAC3
Duration: 1 h 57 min
Bit rate mode: Constant
Bit rate: 576 kb/s
Channel (s): 6 channels
Channel layout: L R C LFE Ls Rs
Sampling rate: 48.0 kHz
Frame rate: 31.250 FPS (1536 SPF)
Compression mode: Lossy
Stream size: 485 MiB (13%)
Language: English (US)
Service kind: Complete Main
Default: No
Forced: No
Complexity index: 16
Number of dynamic objects: 15
Bed channel count: 1 channel
Bed channel configuration: LFE
Dialog Normalization: -31 dB
compr: -0.28 dB
dialnorm_Average: -31 dB
dialnorm_Minimum: -31 dB
dialnorm_Maximum: -31 dB

Text #1
ID: 4
Format: UTF-8
Codec ID: S_TEXT/UTF8
Codec ID/Info: UTF-8 Plain Text
Duration: 1 h 52 min
Bit rate: 73 b/s
Frame rate: 0.266 FPS
Count of elements: 1797
Stream size: 61.0 KiB (0%)
Language: English (US)
Default: No
Forced: No

Text #2
ID: 5
Format: UTF-8
Codec ID: S_TEXT/UTF8
Codec ID/Info: UTF-8 Plain Text
Duration: 1 h 55 min
Bit rate: 81 b/s
Frame rate: 0.293 FPS
Count of elements: 2023
Stream size: 68.4 KiB (0%)
Title: SDH
Language: English (US)
Default: No
Forced: No

Menu
00:00:00.000: en: Scene 1
01:50:18.083: en: End Credits

Другие фильмы
У данной публикации пока нет комментариев.
Будь первым, оставь своё мнение в комментариях!
Информация
Посетители, находящиеся в группе Гости, не могут оставлять комментарии к данной публикации.
Самый популярный релиз недели
Донаты
Мы в соц. сетях / RSS

Лучшие релизы месяца
Лучшие SD недели
Лучшие 720p недели
Лучшие 1080p недели
Лучшие 4K недели
Вы недавно смотрели
Реклама
Последние комментарии
...

Bonzo

14 июня 2024 14:52

...

rmzshka

13 июня 2024 17:48

...

rmzshka

13 июня 2024 12:24

...

LisNick

13 июня 2024 08:45

...

SkySpirit

8 июня 2024 19:54

Реклама