+5

Черепахи – и нет им конца / Turtles All the Way Down (2024) WEB-DL 720p от селезень | P | TVShows

Информация о фильме
Название: Мысль о тебе
Оригинальное название: The Idea of You
Год выпуска: 2024
Жанр: драма, мелодрама
Режиссер: Ханна Маркс / Hannah Marks
В ролях: Изабела Монер, Кри Чиккино, Феликс Маллард, Ханна Маркс, Джей Смит-Кэмерон, Джуди Рейес, Пурна Джаганнатан, Малик Джонсон, Майлз Экхардт, Джейсон Кинтц, Кори Хардин, Тим Гуч, Гэбриел А. Бирн, Чак Томсон

О фильме:
История 17-летней Азы Холмс, которая старается быть хорошей дочерью, другом и ученицей, одновременно борясь с постоянным потоком неконтролируемых навязчивых мыслей. Когда Аза воссоединяется со своей детской любовью Дэвисом, девушка задумывается о своем потенциале любви, счастья, дружбы и надежды.

Выпущено: США / New Line Cinema, Temple Hill Entertainment
Продолжительность: 01:51:18
Перевод: Профессиональный (многоголосый, закадровый) | TVShows (Thx. SunOfABeach)
Субтитры: Английские (Full, SDH)

Файл
Формат: Matroska
Качество: WEB-DL 720p | AMZN
Видео: 1280@1272x688 at 23.976 fps, MPEG-4 AVC, ~4000 kbps
Аудио 1: AC3, 6 ch, ~384 kbps - | Русский | Черепахи – и нет им конца / Turtles All the Way Down (2024) WEB-DL 720p от селезень | P | TVShows
Аудио 2: E-AC3 JOC, 6 ch, 768 kbps - | Английский |
Формат субтитров: softsub (SRT)

Авторизуйтесь для получения доступа к скачиванию

Нет аккаунта? Регистрация открыта и займёт меньше минуты

Вход Регистрация

General
Unique ID : 239926665716368413804713319789236519478 (0xB48031EB423F21080F2D709016E30236)
Complete name : S:Turtles.All.the.Way.Down.2024.MVO.WEB-DL.720p.x264.seleZen.mkv
Format : Matroska
Format version : Version 4
File size : 3.87 GiB
Duration : 1 h 51 min
Overall bit rate : 4 974 kb/s
Frame rate : 23.976 FPS
Movie name : Turtles.All.the.Way.Down.2024.MVO.WEB-DL.720p.x264.seleZen
Encoded date : 2024-05-11 07:30:06 UTC
Writing application : mkvmerge v84.0 ('Sleeper') 64-bit
Writing library : libebml v1.4.5 + libmatroska v1.7.1
Cover : Yes
Attachments : cover.jpg / small_cover.jpg

Video
ID : 1
Format : AVC
Format/Info : Advanced Video Codec
Format profile : [email protected]
Format settings : CABAC / 4 Ref Frames
Format settings, CABAC : Yes
Format settings, Reference : 4 frames
Codec ID : V_MPEG4/ISO/AVC
Duration : 1 h 51 min
Bit rate mode : Constant
Bit rate : 4 000 kb/s
Width : 1 280 pixels
Height : 688 pixels
Display aspect ratio : 1.85:1
Frame rate mode : Constant
Frame rate : 23.976 (24000/1001) FPS
Color space : YUV
Chroma subsampling : 4:2:0
Bit depth : 8 bits
Scan type : Progressive
Bits/(Pixel*Frame) : 0.189
Stream size : 2.97 GiB (77%)
Title : -=DoMiNo=-
Language : English (US)
Default : Yes
Forced : No
Color range : Limited
Color primaries : BT.709
Transfer characteristics : BT.709
Matrix coefficients : BT.709

Audio #1
ID : 2
Format : AC-3
Format/Info : Audio Coding 3
Commercial name : Dolby Digital
Codec ID : A_AC3
Duration : 1 h 51 min
Bit rate mode : Constant
Bit rate : 384 kb/s
Channel(s) : 6 channels
Channel layout : L R C LFE Ls Rs
Sampling rate : 48.0 kHz
Frame rate : 31.250 FPS (1536 SPF)
Compression mode : Lossy
Stream size : 306 MiB (8%)
Title : MVO -TVShows
Language : Russian
Service kind : Complete Main
Default : Yes
Forced : No
Dialog Normalization : -31 dB
cmixlev : -4.5 dB
surmixlev : -6 dB
dialnorm_Average : -31 dB
dialnorm_Minimum : -31 dB
dialnorm_Maximum : -31 dB

Audio #2
ID : 3
Format : E-AC-3 JOC
Format/Info : Enhanced AC-3 with Joint Object Coding
Commercial name : Dolby Digital Plus with Dolby Atmos
Codec ID : A_EAC3
Duration : 1 h 51 min
Bit rate mode : Constant
Bit rate : 768 kb/s
Channel(s) : 6 channels
Channel layout : L R C LFE Ls Rs
Sampling rate : 48.0 kHz
Frame rate : 31.250 FPS (1536 SPF)
Compression mode : Lossy
Stream size : 611 MiB (15%)
Language : English (US)
Service kind : Complete Main
Default : No
Forced : No
Complexity index : 16
Number of dynamic objects : 15
Bed channel count : 1 channel
Bed channel configuration : LFE
Dialog Normalization : -28 dB
compr : 1.94 dB
dmixmod : Lt/Rt
ltrtcmixlev : -3.0 dB
ltrtsurmixlev : -3.0 dB
lorocmixlev : -3.0 dB
lorosurmixlev : -3.0 dB
dialnorm_Average : -28 dB
dialnorm_Minimum : -28 dB
dialnorm_Maximum : -28 dB

Text #1
ID : 4
Format : UTF-8
Codec ID : S_TEXT/UTF8
Codec ID/Info : UTF-8 Plain Text
Duration : 1 h 50 min
Bit rate : 69 b/s
Frame rate : 0.250 FPS
Count of elements : 1653
Stream size : 56.3 KiB (0%)
Language : English (US)
Default : No
Forced : No

Text #2
ID : 5
Format : UTF-8
Codec ID : S_TEXT/UTF8
Codec ID/Info : UTF-8 Plain Text
Duration : 1 h 51 min
Bit rate : 78 b/s
Frame rate : 0.290 FPS
Count of elements : 1930
Stream size : 64.0 KiB (0%)
Title : SDH
Language : English (US)
Default : No
Forced : No

Menu
01:47:10.000 : en:Credits

Другие фильмы
У данной публикации пока нет комментариев.
Будь первым, оставь своё мнение в комментариях!
Информация
Посетители, находящиеся в группе Гости, не могут оставлять комментарии к данной публикации.
Самый популярный релиз недели
Донаты
Мы в соц. сетях / RSS

Лучшие релизы месяца
Лучшие SD недели
Лучшие 720p недели
Лучшие 1080p недели
Лучшие 4K недели
Вы недавно смотрели
Реклама
Последние комментарии
...

Bonzo

14 июня 2024 14:52

...

rmzshka

13 июня 2024 17:48

...

rmzshka

13 июня 2024 12:24

...

LisNick

13 июня 2024 08:45

...

SkySpirit

8 июня 2024 19:54

Реклама