+9

Годзилла и Конг: Новая империя / Godzilla x Kong: The New Empire (2024) WEB-DLRip 720p от DoMiNo & селезень | D

Информация о фильме
Название: Годзилла и Конг: Новая империя
Оригинальное название: Godzilla x Kong: The New Empire
Год выхода: 2024
Жанр: фантастика, боевик
Режиссер: Адам Вингард
В ролях: Ребекка Холл, Брайан Тайри Генри, Дэн Стивенс, Кэйли Хоттл, Алекс Фернс, Чэнь Фала, Рэйчел Хаус, Рональд Смик, Чантелл Джемисон, Грег Хаттон

О фильме:
Два древних титана, Годзилла и Конг, сражаются в эпической битве, пока люди разгадывают их происхождение и связь с тайнами Острова черепа.

Страна: США, Австралия
Студия: Legendary Pictures, Screen Queensland, Warner Bros.
Продолжительность: 01:55:32
Перевод: Дублированный | Bravo Records Georgia / Movie Dubbing
Субтитры: Русские (Forced, full), английские

Файл
Формат: Matroska
Качество: WEB-DLRip 720p | Исх. Godzilla.x.Kong.The.New.Empire.2024.2160p.AMZN.WEB-DL.DDP5.1.H.265-FLUX.mkv
Видео: 1280x534 at 23.976 fps, [email protected], ~3655 kbps
Аудио #01: 48 kHz, AC3, 5.1, 384 Kbps | DUB - | Русский | Годзилла и Конг: Новая империя / Godzilla x Kong: The New Empire (2024) WEB-DLRip 720p от DoMiNo & селезень | D
Аудио #02: 48 kHz, E-AC3, 5.1, 384 Kbps | DUB - | Русский |
Аудио #03: 48 kHz, E-AC3+Atmos, 5.1, 448 Kbps | Оригинал - | Английский |
Формат субтитров: softsub (SRT)

Авторизуйтесь для получения доступа к скачиванию

Нет аккаунта? Регистрация открыта и займёт меньше минуты

Вход Регистрация

General
Unique ID: 7151945565770044680426097006607389729 (0×5616A240CB7935CF368AB65BDD0D421)
Complete name: S: Godzilla.x.Kong.The.New.Empire.2024.DUB.WEB-DLRip.720p.x264.seleZen.mkv
Format: Matroska
Format version: Version 4
File size: 3.90 GiB
Duration: 1 h 55 min
Overall bit rate: 4 857 kb/s
Frame rate: 23.976 FPS
Movie name: Godzilla.x.Kong.The.New.Empire.2024.DUB.WEB-DLRip.720p.x264.seleZen
Encoded date: 13.05.2024 10:11:41 UTC
Writing application: mkvmerge v84.0 ('Sleeper') 64-bit
Writing library: libebml v1.4.5 + libmatroska v1.7.1
Cover: Yes
Attachments: cover.jpg / small_cover.jpg

Video
ID: 1
Format: AVC
Format/Info: Advanced Video Codec
Format profile: [email protected]
Format settings: CABAC / 5 Ref Frames
Format settings, CABAC: Yes
Format settings, Reference: 5 frames
Codec ID: V_MPEG4/ISO/AVC
Duration: 1 h 54 min
Bit rate: 3 655 kb/s
Width: 1 280 pixels
Height: 534 pixels
Display aspect ratio: 2.40:1
Frame rate mode: Constant
Frame rate: 23.976 (24000/1001) FPS
Color space: YUV
Chroma subsampling: 4:2:0
Bit depth: 8 bits
Scan type: Progressive
Bits/(Pixel*Frame): 0.223
Stream size: 2.93 GiB (75%)
Title: -=DoMiNo=-
Writing library: x264 core 164 r3190 -DoMiNo
Encoding settings: cabac=1 / ref=5 / deblock=1:-1:-1 / analyse=0×3:0×133 / me=umh / subme=10 / psy=1 / psy_rd=1.00:0.05 / mixed_ref=1 / me_range=32 / chroma_me=1 / trellis=2 / 8×8dct=1 / cqm=0 / deadzone=21,11 / fast_pskip=0 / chroma_qp_offset=-3 / threads=17 / lookahead_threads=4 / sliced_threads=0 / nr=0 / decimate=1 / interlaced=0 / bluray_compat=0 / constrained_intra=0 / bframes=12 / b_pyramid=2 / b_adapt=2 / b_bias=0 / direct=3 / weightb=1 / open_gop=0 / weightp=2 / keyint=240 / keyint_min=23 / scenecut=40 / intra_refresh=0 / rc_lookahead=60 / rc=crf / mbtree=0 / crf=21.0 / qcomp=0.60 / qpmin=0 / qpmax=69 / qpstep=4 / vbv_maxrate=50000 / vbv_bufsize=62500 / crf_max=0.0 / nal_hrd=none / filler=0 / ip_ratio=1.35 / pb_ratio=1.25 / aq=3:1.00
Language: English
Default: Yes
Forced: No
Color range: Limited
Color primaries: BT.709
Transfer characteristics: BT.709
Matrix coefficients: BT.709

Audio #1
ID: 2
Format: AC-3
Format/Info: Audio Coding 3
Commercial name: Dolby Digital
Codec ID: A_AC3
Duration: 1 h 54 min
Bit rate mode: Constant
Bit rate: 384 kb/s
Channel (s): 6 channels
Channel layout: L R C LFE Ls Rs
Sampling rate: 48.0 kHz
Frame rate: 31.250 FPS (1536 SPF)
Compression mode: Lossy
Stream size: 315 MiB (8%)
Title: Dub
Language: Russian
Service kind: Complete Main
Default: Yes
Forced: No
Dialog Normalization: -31 dB
cmixlev: -3.0 dB
surmixlev: -6 dB
dialnorm_Average: -31 dB
dialnorm_Minimum: -31 dB
dialnorm_Maximum: -31 dB

Audio #2
ID: 3
Format: E-AC-3
Format/Info: Enhanced AC-3
Commercial name: Dolby Digital Plus
Codec ID: A_EAC3
Duration: 1 h 54 min
Bit rate mode: Constant
Bit rate: 384 kb/s
Channel (s): 6 channels
Channel layout: L R C LFE Ls Rs
Sampling rate: 48.0 kHz
Frame rate: 31.250 FPS (1536 SPF)
Compression mode: Lossy
Stream size: 315 MiB (8%)
Title: Dub
Language: Russian
Service kind: Complete Main
Default: No
Forced: No
Dialog Normalization: -13 dB
compr: 0.53 dB
dialnorm_Average: -13 dB
dialnorm_Minimum: -13 dB
dialnorm_Maximum: -13 dB

Audio #3
ID: 4
Format: E-AC-3 JOC
Format/Info: Enhanced AC-3 with Joint Object Coding
Commercial name: Dolby Digital Plus with Dolby Atmos
Codec ID: A_EAC3
Duration: 1 h 55 min
Bit rate mode: Constant
Bit rate: 448 kb/s
Channel (s): 6 channels
Channel layout: L R C LFE Ls Rs
Sampling rate: 48.0 kHz
Frame rate: 31.250 FPS (1536 SPF)
Compression mode: Lossy
Stream size: 369 MiB (9%)
Title: Original
Language: English
Service kind: Complete Main
Default: No
Forced: No
Complexity index: 16
Number of dynamic objects: 15
Bed channel count: 1 channel
Bed channel configuration: LFE
Dialog Normalization: -25 dB
compr: -0.28 dB
dmixmod: 3
ltrtcmixlev: -3.0 dB
ltrtsurmixlev: -3.0 dB
lorocmixlev: -3.0 dB
lorosurmixlev: -3.0 dB
dialnorm_Average: -25 dB
dialnorm_Minimum: -25 dB
dialnorm_Maximum: -25 dB

Text #1
ID: 5
Format: UTF-8
Codec ID: S_TEXT/UTF8
Codec ID/Info: UTF-8 Plain Text
Duration: 1 h 43 min
Bit rate: 4 b/s
Frame rate: 0.011 FPS
Count of elements: 67
Stream size: 3.24 KiB (0%)
Title: Forced
Language: Russian
Default: No
Forced: No

Text #2
ID: 6
Format: UTF-8
Codec ID: S_TEXT/UTF8
Codec ID/Info: UTF-8 Plain Text
Duration: 1 h 53 min
Bit rate: 51 b/s
Frame rate: 0.121 FPS
Count of elements: 825
Stream size: 42.6 KiB (0%)
Title: Full
Language: Russian
Default: No
Forced: No

Text #3
ID: 7
Format: UTF-8
Codec ID: S_TEXT/UTF8
Codec ID/Info: UTF-8 Plain Text
Duration: 1 h 33 min
Bit rate: 1 b/s
Frame rate: 0.010 FPS
Count of elements: 56
Stream size: 1.28 KiB (0%)
Title: Forced
Language: English (US)
Default: No
Forced: No

Text #4
ID: 8
Format: UTF-8
Codec ID: S_TEXT/UTF8
Codec ID/Info: UTF-8 Plain Text
Duration: 1 h 45 min
Bit rate: 38 b/s
Frame rate: 0.151 FPS
Count of elements: 956
Stream size: 30.1 KiB (0%)
Title: Full
Language: English (US)
Default: No
Forced: No

Text #5
ID: 9
Format: UTF-8
Codec ID: S_TEXT/UTF8
Codec ID/Info: UTF-8 Plain Text
Duration: 1 h 54 min
Bit rate: 53 b/s
Frame rate: 0.241 FPS
Count of elements: 1654
Stream size: 44.4 KiB (0%)
Title: SDH
Language: English (US)
Default: No
Forced: No

Menu
00:00:00.000: en: Scene 1
01:54:33.000: en: Outro

Другие фильмы
Комментарии:

...
Robot 13 мая 2024 16:53
+1

rmzshka,

Поменяли.

...
rmzshka 13 мая 2024 16:21
0

А можно такой звук в 4к HDR релиз и желательно без рассинхрона?

Информация
Посетители, находящиеся в группе Гости, не могут оставлять комментарии к данной публикации.
Самый популярный релиз недели
Донаты
Мы в соц. сетях / RSS

Лучшие релизы месяца
Лучшие SD недели
Лучшие 720p недели
Лучшие 1080p недели
Лучшие 4K недели
Вы недавно смотрели
Реклама
Последние комментарии
...

rmzshka

15 мая 2024 13:43

...

Andrey_Vladimirovich

13 мая 2024 18:12

...

Robot

13 мая 2024 16:53

...

rmzshka

13 мая 2024 16:21

...

supermehanik

13 мая 2024 02:03

Реклама