+6

Олененок / Baby Reindeer [S01] (2024) WEB-DLRip-AVC от DoMiNo & селезень | HDrezka Studio, Red Head Sound

Информация о фильме
Название: Олененок
Оригинальное название: Baby Reindeer
Год выхода: 2024
Жанр: драма, комедия, триллер, биография
Режиссёр: Жозефин Борнебуш
В ролях: Джессика Ганнинг, Дэнни Киррейн, Хью Коулз, Ричард Гэдд, Хлоя Драйвер, Том Гудман-Хилл, Джэми Мичи, Джо Боун, Чарли Бентли, Гай Роббинс, Николь Шоу

О фильме:
Лондон, 2015 год. Молодой неудачник Донни Данн пытается реализоваться в комедии, а пока живёт у мамы своей бывшей девушки и работает в баре. Однажды он из жалости за счёт заведения угощает чаем полную женщину за 40, а та начинает обсыпать его комплиментами. Новую знакомую зовут Марта Скотт, и теперь она приходит в бар каждый день, навязчиво общается с Донни, называя его Оленёнком, и всячески намекает на свидание. Тот вяло отшучивается, но вскоре узнаёт, что стал предметом обожания уже судимой сталкерши.

Страна: Великобритания
Студия: Clerkenwell Films
Продолжительность: ~00:30:00 серия
Перевод 1: Профессиональный (многоголосый, закадровый) | HDrezka Studio
Перевод 2: Профессиональный (многоголосый, закадровый) | Red Head Sound
Субтитры: Русские (Forced, Full), Английские

Файл
Формат: Matroska
Качество: WEB-DLRip-AVC
Видео: 1024×576 at 25.000 fps, [email protected], ~1800 kbps
Аудио 1: AC3, 2 ch, ~192 kbps — | Русский | Олененок / Baby Reindeer [S01] (2024) WEB-DLRip-AVC от DoMiNo & селезень | HDrezka Studio, Red Head Sound | HDrezka Studio
Аудио 2: AC3, 2 ch, ~192 kbps — | Русский | | Red Head Sound
Формат субтитров: softsub (SRT)

Авторизуйтесь для получения доступа к скачиванию

Нет аккаунта? Регистрация открыта и займёт меньше минуты

Вход Регистрация

x264 [info]: frame I: 465 Avg QP: 14.11 size: 65719
x264 [info]: frame P: 7457 Avg QP: 17.52 size: 22870
x264 [info]: frame B: 40545 Avg QP: 18.05 size: 5790
x264 [info]: consecutive B-frames: 2,2% 1,3% 2,8% 5,6% 6,6% 33,7% 7,1% 1,2% 2,9% 4,1% 4,8% 1,2% 6,2% 9,8% 2,4% 1,5% 6,6%

General
Unique ID: 222127527696194976606839356702514269983 (0xA71C34A92AB42E553646CEDACFECCF1F)
Complete name: S: Baby.Reindeer.2024.S01.NF.WEB-DLRip.x264.seleZenBaby.Reindeer.S01E01.NF.WEB-DLRip.x264.seleZen.mkv
Format: Matroska
Format version: Version 4
File size: 505 MiB
Duration: 32 min 18 s
Overall bit rate: 2 186 kb/s
Frame rate: 25.000 FPS
Movie name: Baby.Reindeer.S01E01.NF.WEB-DLRip.x264.seleZen
Encoded date: 15.05.2024 08:14:19 UTC
Writing application: mkvmerge v84.0 ('Sleeper') 64-bit
Writing library: libebml v1.4.5 + libmatroska v1.7.1
Cover: Yes
Attachments: cover.jpg / small_cover.jpg

Video
ID: 1
Format: AVC
Format/Info: Advanced Video Codec
Format profile: [email protected]
Format settings: CABAC / 9 Ref Frames
Format settings, CABAC: Yes
Format settings, Reference: 9 frames
Codec ID: V_MPEG4/ISO/AVC
Duration: 32 min 18 s
Bit rate: 1 800 kb/s
Width: 1 024 pixels
Height: 576 pixels
Display aspect ratio: 16:9
Frame rate mode: Constant
Frame rate: 25.000 FPS
Color space: YUV
Chroma subsampling: 4:2:0
Bit depth: 8 bits
Scan type: Progressive
Bits/(Pixel*Frame): 0.122
Stream size: 416 MiB (82%)
Title: -=DoMiNo=-
Writing library: x264 core 164 r3190 -DoMiNo
Encoding settings: cabac=1 / ref=9 / deblock=1:0:0 / analyse=0×3:0×133 / me=umh / subme=10 / psy=1 / psy_rd=1.00:0.00 / mixed_ref=1 / me_range=32 / chroma_me=1 / trellis=2 / 8×8dct=1 / cqm=0 / deadzone=21,11 / fast_pskip=0 / chroma_qp_offset=-2 / threads=18 / lookahead_threads=4 / sliced_threads=0 / nr=0 / decimate=0 / interlaced=0 / bluray_compat=0 / constrained_intra=0 / bframes=16 / b_pyramid=2 / b_adapt=2 / b_bias=0 / direct=3 / weightb=1 / open_gop=0 / weightp=2 / keyint=250 / keyint_min=25 / scenecut=40 / intra_refresh=0 / rc_lookahead=60 / rc=2pass / mbtree=0 / bitrate=1800 / ratetol=1.0 / qcomp=0.70 / qpmin=0 / qpmax=69 / qpstep=4 / cplxblur=20.0 / qblur=0.5 / vbv_maxrate=50000 / vbv_bufsize=62500 / nal_hrd=none / filler=0 / ip_ratio=1.24 / pb_ratio=1.30 / aq=1:0.90
Language: English
Default: Yes
Forced: No
Color range: Limited
Color primaries: BT.709
Transfer characteristics: BT.709
Matrix coefficients: BT.709

Audio #1
ID: 2
Format: AC-3
Format/Info: Audio Coding 3
Commercial name: Dolby Digital
Codec ID: A_AC3
Duration: 32 min 18 s
Bit rate mode: Constant
Bit rate: 192 kb/s
Channel (s): 2 channels
Channel layout: L R
Sampling rate: 48.0 kHz
Frame rate: 31.250 FPS (1536 SPF)
Compression mode: Lossy
Stream size: 44.4 MiB (9%)
Title: HDRezka
Language: Russian
Service kind: Complete Main
Default: Yes
Forced: No
Dialog Normalization: -31 dB
compr: -0.28 dB
mixlevel: 281 dB
roomtyp: 3
ltrtcmixlev: -3.0 dB
ltrtsurmixlev: -3.0 dB
lorocmixlev: -3.0 dB
lorosurmixlev: -3.0 dB
dialnorm_Average: -31 dB
dialnorm_Minimum: -31 dB
dialnorm_Maximum: -31 dB

Audio #2
ID: 3
Format: AC-3
Format/Info: Audio Coding 3
Commercial name: Dolby Digital
Codec ID: A_AC3
Duration: 32 min 18 s
Bit rate mode: Constant
Bit rate: 192 kb/s
Channel (s): 2 channels
Channel layout: L R
Sampling rate: 48.0 kHz
Frame rate: 31.250 FPS (1536 SPF)
Compression mode: Lossy
Stream size: 44.4 MiB (9%)
Title: Red Head Sound
Language: Russian
Service kind: Complete Main
Default: No
Forced: No
Dialog Normalization: -31 dB
dialnorm_Average: -31 dB
dialnorm_Minimum: -31 dB
dialnorm_Maximum: -31 dB

Text #1
ID: 4
Format: UTF-8
Codec ID: S_TEXT/UTF8
Codec ID/Info: UTF-8 Plain Text
Duration: 28 min 25 s
Bit rate: 7 b/s
Frame rate: 0.018 FPS
Count of elements: 30
Stream size: 1.59 KiB (0%)
Title: Forced
Language: Russian
Default: No
Forced: No

Text #2
ID: 5
Format: UTF-8
Codec ID: S_TEXT/UTF8
Codec ID/Info: UTF-8 Plain Text
Duration: 30 min 34 s
Bit rate: 106 b/s
Frame rate: 0.253 FPS
Count of elements: 464
Stream size: 23.8 KiB (0%)
Title: Rus (Full)
Language: Russian
Default: No
Forced: No

Text #3
ID: 6
Format: UTF-8
Codec ID: S_TEXT/UTF8
Codec ID/Info: UTF-8 Plain Text
Duration: 30 min 34 s
Bit rate: 77 b/s
Frame rate: 0.256 FPS
Count of elements: 469
Stream size: 17.4 KiB (0%)
Language: English
Default: No
Forced: No

Text #4
ID: 7
Format: UTF-8
Codec ID: S_TEXT/UTF8
Codec ID/Info: UTF-8 Plain Text
Duration: 30 min 42 s
Bit rate: 85 b/s
Frame rate: 0.290 FPS
Count of elements: 534
Stream size: 19.2 KiB (0%)
Title: SDH
Language: English
Default: No
Forced: No

Menu
00:00:00.000: en: Part 01
00:29:52.450: en: Credits

Другие фильмы
У данной публикации пока нет комментариев.
Будь первым, оставь своё мнение в комментариях!
Информация
Посетители, находящиеся в группе Гости, не могут оставлять комментарии к данной публикации.
Самый популярный релиз недели
Донаты
Мы в соц. сетях / RSS

Лучшие релизы месяца
Лучшие SD недели
Лучшие 720p недели
Лучшие 1080p недели
Лучшие 4K недели
Вы недавно смотрели
Реклама
Последние комментарии
...

rmzshka

15 мая 2024 13:43

...

Andrey_Vladimirovich

13 мая 2024 18:12

...

Robot

13 мая 2024 16:53

...

rmzshka

13 мая 2024 16:21

...

supermehanik

13 мая 2024 02:03

Реклама