+3

Спящие псы / Sleeping Dogs (2024) WEB-DL 1080p от селезень | D | Локализованная версия

Информация о фильме
Название: Спящие псы
Оригинальное название: Sleeping Dogs
Год выхода: 2024
Жанр: детектив, триллер, криминал
Режиссер: Адам Купер
В ролях: Рассел Кроу, Карен Гиллан, Мартон Чокаш, Томми Флэнаган, Томас М. Райт, Гарри Гринвуд, Пачаро Мзембе, Линн Гилмартин, Паула Арунделл, Элизабет Блэкмор

О фильме: После лечения провалов в памяти бывший детектив по расследованию убийств пересматривает дело десятилетней давности, связанное с жестоким убийством профессора колледжа.

Страна: Австралия, США
Студия: Film Victoria, G2 Dispatch, Gala Media Capital, Gramercy Park Media, Highland Film Group (HFG)
Продолжительность: 01:51:13
Перевод: Дублированный | Мосфильм-Мастер

Качество: WEB-DL 1080p
Видео: MPEG-4 AVC, 1920x1080, 6144 Kbit/s, 24.000 fps
Аудио: 48 kHz, AC3, 5.1, 640 Kbps | Дублированный | Мосфильм-Мастер | RUS |Спящие псы / Sleeping Dogs (2024) WEB-DL 1080p от селезень | D | Локализованная версия
Субтитры: Русские (Forced - хардсаб)

Спящие псы / Sleeping Dogs (2024) WEB-DL 1080p от селезень | D | Локализованная версия

Авторизуйтесь для получения доступа к скачиванию

Нет аккаунта? Регистрация открыта и займёт меньше минуты

Вход Регистрация

General
Unique ID : 106234845344571983375580673109255879380 (0x4FEC16443B8736AE5A16A4E8EEAD7AD4)
Complete name : H:\VideoH\Sleeping.Dogs.2024.WEB-DL.1080p.seleZen.mkv
Format : Matroska
Format version : Version 4
File size : 5.12 GiB
Duration : 1 h 51 min
Overall bit rate mode : Constant
Overall bit rate : 6 593 kb/s
Frame rate : 24.000 FPS
Movie name : Sleeping Dogs 2024 from seleZen
Encoded date : 2024-05-15 10:20:32 UTC
Writing application : mkvmerge v80.0 ('Roundabout') 64-bit
Writing library : libebml v1.4.4 + libmatroska v1.7.1

Video
ID : 1
Format : AVC
Format/Info : Advanced Video Codec
Format profile : Constrained Baseline@L4
Format settings : 2 Ref Frames
Format settings, CABAC : No
Format settings, Reference : 2 frames
Format settings, Slice coun : 7 slices per frame
Codec ID : V_MPEG4/ISO/AVC
Duration : 1 h 51 min
Bit rate mode : Constant
Bit rate : 6 144 kb/s
Width : 1 920 pixels
Height : 1 080 pixels
Display aspect ratio : 16:9
Frame rate mode : Constant
Frame rate : 24.000 FPS
Color space : YUV
Chroma subsampling : 4:2:0
Bit depth : 8 bits
Scan type : Progressive
Bits/(Pixel*Frame) : 0.123
Stream size : 4.62 GiB (90%)
Language : English
Default : Yes
Forced : No

Audio
ID : 2
Format : AC-3
Format/Info : Audio Coding 3
Commercial name : Dolby Digital
Codec ID : A_AC3
Duration : 1 h 51 min
Bit rate mode : Constant
Bit rate : 640 kb/s
Channel(s) : 6 channels
Channel layout : L R C LFE Ls Rs
Sampling rate : 48.0 kHz
Frame rate : 31.250 FPS (1536 SPF)
Compression mode : Lossy
Stream size : 509 MiB (10%)
Title : Dub
Language : Russian
Service kind : Complete Main
Default : Yes
Forced : No

Другие фильмы
Комментарии:

...
rmzshka 15 мая 2024 13:43
0

Ждем в 4К

Информация
Посетители, находящиеся в группе Гости, не могут оставлять комментарии к данной публикации.
Самый популярный релиз недели
Донаты
Мы в соц. сетях / RSS

Лучшие релизы месяца
Лучшие SD недели
Лучшие 720p недели
Лучшие 1080p недели
Лучшие 4K недели
Вы недавно смотрели
Реклама
Последние комментарии
...

rmzshka

15 мая 2024 13:43

...

Andrey_Vladimirovich

13 мая 2024 18:12

...

Robot

13 мая 2024 16:53

...

rmzshka

13 мая 2024 16:21

...

supermehanik

13 мая 2024 02:03

Реклама