+4

Спящие псы / Sleeping Dogs (2024) WEB-DLRip-AVC от DoMiNo & селезень | D | Локализованная версия

Информация о фильме
Название: Спящие псы
Оригинальное название: Sleeping Dogs
Год выхода: 2024
Жанр: детектив, триллер, криминал
Режиссер: Адам Купер
В ролях: Рассел Кроу, Карен Гиллан, Мартон Чокаш, Томми Флэнаган, Томас М. Райт, Гарри Гринвуд, Пачаро Мзембе, Линн Гилмартин, Паула Арунделл, Элизабет Блэкмор и др.

О фильме:
После лечения провалов в памяти бывший детектив по расследованию убийств пересматривает дело десятилетней давности, связанное с жестоким убийством профессора колледжа.

Страна: Австралия, США
Студия: Film Victoria, G2 Dispatch, Gala Media Capital, Gramercy Park Media, Highland Film Group (HFG)
Продолжительность: 01:51:13
Перевод: Дублированный | Мосфильм-Мастер
Субтитры: Русские (Forced - хардсаб)

Файл
Формат: Matroska
Качество: WEB-DLRip-AVC
Видео: 1024x428 at 24.000 fps, [email protected], ~1405 kbps
Аудио: AC3, 6 ch, ~448 kbps - | Русский | Спящие псы / Sleeping Dogs (2024) WEB-DLRip-AVC от DoMiNo & селезень | D | Локализованная версия | Soundmasters
Формат субтитров: softsub (SRT)

Авторизуйтесь для получения доступа к скачиванию

Нет аккаунта? Регистрация открыта и займёт меньше минуты

Вход Регистрация

x264 [info]: frame I: 1492 Avg QP: 13.49 size: 47965
x264 [info]: frame P: 35220 Avg QP: 15.38 size: 17000
x264 [info]: frame B: 123449 Avg QP: 17.55 size: 4063

General
Unique ID: 292327947222967875595031542577095779507 (0xDBEC50911557B6765ECDC2A9986424B3)
Complete name: I: Sleeping.Dogs.2024.DUB.WEB-DLRip.x264.seleZen.mkv
Format: Matroska
Format version: Version 4
File size: 1.44 GiB
Duration: 1 h 51 min
Overall bit rate: 1 855 kb/s
Frame rate: 24.000 FPS
Movie name: Sleeping.Dogs.2024.DUB.WEB-DLRip.x264.seleZen
Encoded date: 15.05.2024 12:09:04 UTC
Writing application: mkvmerge v84.0 ('Sleeper') 64-bit
Writing library: libebml v1.4.5 + libmatroska v1.7.1
Cover: Yes
Attachments: cover.jpg / small_cover.jpg

Video
ID: 1
Format: AVC
Format/Info: Advanced Video Codec
Format profile: [email protected]
Format settings: CABAC / 12 Ref Frames
Format settings, CABAC: Yes
Format settings, Reference: 12 frames
Codec ID: V_MPEG4/ISO/AVC
Duration: 1 h 51 min
Bit rate: 1 405 kb/s
Width: 1 024 pixels
Height: 428 pixels
Display aspect ratio: 2.39:1
Frame rate mode: Constant
Frame rate: 24.000 FPS
Color space: YUV
Chroma subsampling: 4:2:0
Bit depth: 8 bits
Scan type: Progressive
Bits/(Pixel*Frame): 0.134
Stream size: 1.09 GiB (76%)
Title: -=DoMiNo=-
Writing library: x264 core 164 r3190 -DoMiNo
Encoding settings: cabac=1 / ref=12 / deblock=1:-2:-1 / analyse=0×3:0×133 / me=umh / subme=10 / psy=1 / psy_rd=1.01:0.05 / mixed_ref=1 / me_range=32 / chroma_me=1 / trellis=2 / 8×8dct=1 / cqm=0 / deadzone=21,11 / fast_pskip=0 / chroma_qp_offset=-3 / threads=13 / lookahead_threads=3 / sliced_threads=0 / nr=0 / decimate=1 / interlaced=0 / bluray_compat=0 / constrained_intra=0 / bframes=10 / b_pyramid=2 / b_adapt=2 / b_bias=0 / direct=3 / weightb=1 / open_gop=0 / weightp=2 / keyint=250 / keyint_min=24 / scenecut=40 / intra_refresh=0 / rc_lookahead=60 / rc=crf / mbtree=0 / crf=18.0 / qcomp=0.60 / qpmin=0 / qpmax=69 / qpstep=4 / vbv_maxrate=50000 / vbv_bufsize=62500 / crf_max=0.0 / nal_hrd=none / filler=0 / ip_ratio=1.40 / pb_ratio=1.30 / aq=3:0.90
Language: English
Default: Yes
Forced: No
Color range: Limited
Color primaries: BT.709
Transfer characteristics: BT.709
Matrix coefficients: BT.709

Audio
ID: 2
Format: AC-3
Format/Info: Audio Coding 3
Commercial name: Dolby Digital
Codec ID: A_AC3
Duration: 1 h 51 min
Bit rate mode: Constant
Bit rate: 448 kb/s
Channel (s): 6 channels
Channel layout: L R C LFE Ls Rs
Sampling rate: 48.0 kHz
Frame rate: 31.250 FPS (1536 SPF)
Compression mode: Lossy
Stream size: 356 MiB (24%)
Title: Дублированный | Мосфильм-Мастер
Language: Russian
Service kind: Complete Main
Default: Yes
Forced: No
Dialog Normalization: -24 dB
compr: -0.28 dB
cmixlev: -3.0 dB
surmixlev: -3 dB
mixlevel: 85 dB
roomtyp: 3
ltrtcmixlev: -3.0 dB
ltrtsurmixlev: -3.0 dB
lorocmixlev: -3.0 dB
lorosurmixlev: -4.5 dB
dialnorm_Average: -24 dB
dialnorm_Minimum: -24 dB
dialnorm_Maximum: -24 dB

Другие фильмы
У данной публикации пока нет комментариев.
Будь первым, оставь своё мнение в комментариях!
Информация
Посетители, находящиеся в группе Гости, не могут оставлять комментарии к данной публикации.
Самый популярный релиз недели
Донаты
Мы в соц. сетях / RSS

Лучшие релизы месяца
Лучшие SD недели
Лучшие 720p недели
Лучшие 1080p недели
Лучшие 4K недели
Вы недавно смотрели
Реклама
Последние комментарии
...

rmzshka

15 мая 2024 13:43

...

Andrey_Vladimirovich

13 мая 2024 18:12

...

Robot

13 мая 2024 16:53

...

rmzshka

13 мая 2024 16:21

...

supermehanik

13 мая 2024 02:03

Реклама