+3

Одна жизнь / One Life (2023) BDRemux 1080p от селезень | D

Информация о фильме
Название: Одна жизнь
Оригинальное название: One Life
Год выхода: 2023
Жанр: драма, биография, история
Режиссер: Джеймс Хоуз
В ролях: Энтони Хопкинс, Хелена Бонем Картер, Джонни Флинн, Лена Олин, Тим Стид, Матильда Торпе, Дэниэл Браун, Алекс Шарп, Иржи Симек, Ромола Гарай

О фильме: Скромного и непубличного джентльмена Николаса Уинтона приглашают на телевизионное ток-шоу, где он наконец-то узнает всю правду о событиях Второй мировой войны, когда он пытался спасти сотни детей от гибели в концлагере. Одна жизнь может изменить судьбы сотен людей - как в прошлом, так и в настоящем.

Страна: Великобритания
Студия: BBC Films, MBK Productions, See-Saw Films
Продолжительность: 01:49:01
Перевод: Дублированный | Paragraph Media

Качество: BDRemux 1080p
Видео: MPEG-4 AVC, 1920x1080, 30.0 Mbit/s, 24.000 fps
Аудио #01: 48 kHz, AC3, 5.1, 448 Kbps | Дублированный | Paragraph Media | RUS |Одна жизнь / One Life (2023) BDRemux 1080p от селезень | D
Аудио #02: 48 kHz, DTS-HD MA, 5.1, 3879 Kbps | Оригинал | ENG |
Субтитры: Русские (Forced, full), английские

Одна жизнь / One Life (2023) BDRemux 1080p от селезень | D

Авторизуйтесь для получения доступа к скачиванию

Нет аккаунта? Регистрация открыта и займёт меньше минуты

Вход Регистрация

General
Unique ID : 92735158746188488335865789244952454737 (0x45C4245463AA74A6BD76CF0B649AA651)
Complete name : H:\VideoH\One.Life.2023.BDREMUX.1080p.seleZen.mkv
Format : Matroska
Format version : Version 4
File size : 26.2 GiB
Duration : 1 h 49 min
Overall bit rate mode : Variable
Overall bit rate : 34.3 Mb/s
Frame rate : 24.000 FPS
Movie name : One Life [2023] from seleZen
Encoded date : 2024-05-20 07:47:37 UTC
Writing application : mkvmerge v80.0 ('Roundabout') 64-bit
Writing library : libebml v1.4.4 + libmatroska v1.7.1

Video
ID : 1
Format : AVC
Format/Info : Advanced Video Codec
Format profile : [email protected]
Format settings : CABAC / 4 Ref Frames
Format settings, CABAC : Yes
Format settings, Reference : 4 frames
Format settings, Slice coun : 4 slices per frame
Codec ID : V_MPEG4/ISO/AVC
Duration : 1 h 49 min
Bit rate mode : Variable
Bit rate : 30.0 Mb/s
Maximum bit rate : 35.0 Mb/s
Width : 1 920 pixels
Height : 1 080 pixels
Display aspect ratio : 16:9
Frame rate mode : Constant
Frame rate : 24.000 FPS
Standard : NTSC
Color space : YUV
Chroma subsampling : 4:2:0
Bit depth : 8 bits
Scan type : Progressive
Bits/(Pixel*Frame) : 0.603
Stream size : 22.9 GiB (87%)
Language : English
Default : Yes
Forced : No
Color range : Limited
Color primaries : BT.709
Transfer characteristics : BT.709
Matrix coefficients : BT.709

Audio #1
ID : 2
Format : AC-3
Format/Info : Audio Coding 3
Commercial name : Dolby Digital
Codec ID : A_AC3
Duration : 1 h 49 min
Bit rate mode : Constant
Bit rate : 448 kb/s
Channel(s) : 6 channels
Channel layout : L R C LFE Ls Rs
Sampling rate : 48.0 kHz
Frame rate : 31.250 FPS (1536 SPF)
Compression mode : Lossy
Stream size : 349 MiB (1%)
Title : Dub
Language : Russian
Service kind : Complete Main
Default : Yes
Forced : No

Audio #2
ID : 3
Format : DTS XLL
Format/Info : Digital Theater Systems
Commercial name : DTS-HD Master Audio
Codec ID : A_DTS
Duration : 1 h 49 min
Bit rate mode : Variable
Bit rate : 3 879 kb/s
Channel(s) : 6 channels
Channel layout : C L R Ls Rs LFE
Sampling rate : 48.0 kHz
Frame rate : 93.750 FPS (512 SPF)
Bit depth : 24 bits
Compression mode : Lossless
Stream size : 2.96 GiB (11%)
Title : Original
Language : English
Default : No
Forced : No

Text #1
ID : 4
Format : UTF-8
Codec ID : S_TEXT/UTF8
Codec ID/Info : UTF-8 Plain Text
Duration : 1 h 46 min
Bit rate : 6 b/s
Frame rate : 0.014 FPS
Count of elements : 89
Stream size : 4.89 KiB (0%)
Title : Forced
Language : Russian
Default : Yes
Forced : No

Text #2
ID : 5
Format : UTF-8
Codec ID : S_TEXT/UTF8
Codec ID/Info : UTF-8 Plain Text
Duration : 1 h 48 min
Bit rate : 92 b/s
Frame rate : 0.194 FPS
Count of elements : 1258
Stream size : 73.3 KiB (0%)
Title : Full
Language : Russian
Default : No
Forced : No

Text #3
ID : 6
Format : UTF-8
Codec ID : S_TEXT/UTF8
Codec ID/Info : UTF-8 Plain Text
Duration : 1 h 5 min
Bit rate : 1 b/s
Frame rate : 0.006 FPS
Count of elements : 25
Stream size : 651 Bytes (0%)
Title : Forced
Language : English
Default : No
Forced : Yes

Text #4
ID : 7
Format : UTF-8
Codec ID : S_TEXT/UTF8
Codec ID/Info : UTF-8 Plain Text
Duration : 1 h 37 min
Bit rate : 60 b/s
Frame rate : 0.246 FPS
Count of elements : 1432
Stream size : 42.7 KiB (0%)
Title : Full
Language : English
Default : No
Forced : No

Text #5
ID : 8
Format : UTF-8
Codec ID : S_TEXT/UTF8
Codec ID/Info : UTF-8 Plain Text
Duration : 1 h 47 min
Bit rate : 65 b/s
Frame rate : 0.264 FPS
Count of elements : 1706
Stream size : 51.6 KiB (0%)
Title : SDH
Language : English
Default : No
Forced : No

Menu
00:00:00.000 : en:Chapter 01
00:14:39.541 : en:Chapter 02
00:30:15.583 : en:Chapter 03
00:45:29.291 : en:Chapter 04
01:00:30.916 : en:Chapter 05
01:14:03.166 : en:Chapter 06
01:29:29.208 : en:Chapter 07
01:41:47.083 : en:Chapter 08

Другие фильмы
У данной публикации пока нет комментариев.
Будь первым, оставь своё мнение в комментариях!
Информация
Посетители, находящиеся в группе Гости, не могут оставлять комментарии к данной публикации.
Самый популярный релиз недели
Донаты
Мы в соц. сетях / RSS

Лучшие релизы месяца
Лучшие SD недели
Лучшие 720p недели
Лучшие 1080p недели
Лучшие 4K недели
Вы недавно смотрели
Реклама
Последние комментарии
...

Bonzo

14 июня 2024 14:52

...

rmzshka

13 июня 2024 17:48

...

rmzshka

13 июня 2024 12:24

...

LisNick

13 июня 2024 08:45

...

SkySpirit

8 июня 2024 19:54

Реклама