+7

Бюро магических услуг / The Portable Door (2023) BDRip 1080p от селезень | D, P

Информация о фильме
Название: Бюро магических услуг
Оригинальное название: The Portable Door
Год выхода: 2023
Жанр: Фэнтези, комедия, детектив, приключения
Режиссер: Джеффри Уокер
В ролях: Кристоф Вальц, Сэм Нил, Рэйчел Хаус, Миранда Отто, Патрик Гибсон, Софи Уайлд, Джессика Де Гау, Дэймон Херриман, Крис Пэнг, Диана Лин, Кристофер Соммерс, Джейсон Уайлдер

О фильме:
Самые обычные клерки работают в весьма необычной фирме. Здесь распутывают самые странные происшествия и занимаются поисками магических артефактов. Непримечательная парочка стажеров — исполнителей среднего звена, даже не подозревает, во что ввязалась, и думает лишь о том, как бы разобраться с рутиной до ужина, желательно не изменив ход истории и не повергнув Вселенную в хаос временных парадоксов. Иначе повышения им точно не видать.

Страна: Австралия
Студия: Jim Henson Company, The, MEP Capital
Продолжительность: 01:55:56
Перевод 1: Профессиональный (полное дублирование) | Велес
Перевод 2: Профессиональный многоголосый | Jaskier
Субтитры: Русские (Full), Английские

Файл
Формат: Matroska
Качество: BDRip 1080p
Видео: 1920x802 at 23.976 fps, [email protected], ~10000 kbps
Аудио 1: AC3, 6 ch, ~384 kbps - | Русский | Бюро магических услуг / The Portable Door (2023) BDRip 1080p от селезень | D, P | Велес
Аудио 2: AC3, 6 ch, ~384 kbps - | Русский | | Jaskier
Аудио 3: AC3, 6 ch, ~640 kbps - | Английский |
Формат субтитров: softsub (SRT)

Авторизуйтесь для получения доступа к скачиванию

Нет аккаунта? Регистрация открыта и займёт меньше минуты

Вход Регистрация

General
Unique ID: 86243757337941194919567496433032801215 (0×40E1F187BB78DF7EA7BA2B13D874ABBF)
Complete name: H: VideoHThe.Portable.Door.2023.BDRip.1080p.seleZen.mkv
Format: Matroska
Format version: Version 4
File size: 9.24 GiB
Duration: 1 h 55 min
Overall bit rate: 11.4 Mb/s
Frame rate: 23.976 FPS
Movie name: The Portable Door (2023) from seleZen
Encoded date: 21.05.2024 21:27:21 UTC
Writing application: mkvmerge v80.0 ('Roundabout') 64-bit
Writing library: libebml v1.4.4 + libmatroska v1.7.1

Video
ID: 1
Format: AVC
Format/Info: Advanced Video Codec
Format profile: [email protected]
Format settings: CABAC / 5 Ref Frames
Format settings, CABAC: Yes
Format settings, Reference: 5 frames
Codec ID: V_MPEG4/ISO/AVC
Duration: 1 h 55 min
Bit rate: 10 000 kb/s
Width: 1 920 pixels
Height: 802 pixels
Display aspect ratio: 2.39:1
Frame rate mode: Constant
Frame rate: 23.976 (24000/1001) FPS
Color space: YUV
Chroma subsampling: 4:2:0
Bit depth: 8 bits
Scan type: Progressive
Bits/(Pixel*Frame): 0.271
Stream size: 8.09 GiB (88%)
Writing library: x264 core 164 r3164 seleZen
Encoding settings: cabac=1 / ref=5 / deblock=1:-2:-2 / analyse=0×3:0×133 / me=umh / subme=11 / psy=1 / psy_rd=1.00:0.04 / mixed_ref=1 / me_range=48 / chroma_me=1 / trellis=2 / 8×8dct=1 / cqm=0 / deadzone=21,11 / fast_pskip=0 / chroma_qp_offset=-3 / threads=25 / lookahead_threads=6 / sliced_threads=0 / nr=0 / decimate=0 / interlaced=0 / bluray_compat=0 / constrained_intra=0 / bframes=10 / b_pyramid=2 / b_adapt=2 / b_bias=0 / direct=3 / weightb=1 / open_gop=0 / weightp=2 / keyint=240 / keyint_min=23 / scenecut=40 / intra_refresh=0 / rc_lookahead=60 / rc=2pass / mbtree=0 / bitrate=10000 / ratetol=1.0 / qcomp=0.60 / qpmin=0 / qpmax=51 / qpstep=4 / cplxblur=20.0 / qblur=0.5 / vbv_maxrate=50000 / vbv_bufsize=62500 / nal_hrd=none / filler=0 / ip_ratio=1.40 / pb_ratio=1.30 / aq=3:0.80
Language: English
Default: Yes
Forced: No

Audio #1
ID: 2
Format: AC-3
Format/Info: Audio Coding 3
Commercial name: Dolby Digital
Codec ID: A_AC3
Duration: 1 h 55 min
Bit rate mode: Constant
Bit rate: 384 kb/s
Channel (s): 6 channels
Channel layout: L R C LFE Ls Rs
Sampling rate: 48.0 kHz
Frame rate: 31.250 FPS (1536 SPF)
Compression mode: Lossy
Stream size: 318 MiB (3%)
Title: Dub [Veles]
Language: Russian
Service kind: Complete Main
Default: Yes
Forced: No

Audio #2
ID: 3
Format: AC-3
Format/Info: Audio Coding 3
Commercial name: Dolby Digital
Codec ID: A_AC3
Duration: 1 h 55 min
Bit rate mode: Constant
Bit rate: 384 kb/s
Channel (s): 6 channels
Channel layout: L R C LFE Ls Rs
Sampling rate: 48.0 kHz
Frame rate: 31.250 FPS (1536 SPF)
Compression mode: Lossy
Stream size: 318 MiB (3%)
Title: MVO [Jaskier]
Language: Russian
Service kind: Complete Main
Default: No
Forced: No

Audio #3
ID: 4
Format: AC-3
Format/Info: Audio Coding 3
Commercial name: Dolby Digital
Codec ID: A_AC3
Duration: 1 h 55 min
Bit rate mode: Constant
Bit rate: 640 kb/s
Channel (s): 6 channels
Channel layout: L R C LFE Ls Rs
Sampling rate: 48.0 kHz
Frame rate: 31.250 FPS (1536 SPF)
Compression mode: Lossy
Stream size: 531 MiB (6%)
Title: Original
Language: English
Service kind: Complete Main
Default: No
Forced: No

Text #1
ID: 5
Format: UTF-8
Codec ID: S_TEXT/UTF8
Codec ID/Info: UTF-8 Plain Text
Duration: 1 h 54 min
Bit rate: 75 b/s
Frame rate: 0.234 FPS
Count of elements: 1601
Stream size: 63.4 KiB (0%)
Title: Full
Language: Russian
Default: No
Forced: No

Text #2
ID: 6
Format: UTF-8
Codec ID: S_TEXT/UTF8
Codec ID/Info: UTF-8 Plain Text
Duration: 1 h 53 min
Bit rate: 52 b/s
Frame rate: 0.226 FPS
Count of elements: 1542
Stream size: 43.3 KiB (0%)
Title: Full
Language: English (GB)
Default: No
Forced: No

Text #3
ID: 7
Format: UTF-8
Codec ID: S_TEXT/UTF8
Codec ID/Info: UTF-8 Plain Text
Duration: 1 h 54 min
Bit rate: 62 b/s
Frame rate: 0.274 FPS
Count of elements: 1875
Stream size: 52.0 KiB (0%)
Title: SDH
Language: English (GB)
Default: No
Forced: No

Menu
00:00:00.000: Chapter 01
00:14:12.435: Chapter 02
00:22:59.837: Chapter 03
00:34:30.402: Chapter 04
00:42:38.264: Chapter 05
00:54:15.794: Chapter 06
01:08:21.014: Chapter 07
01:18:43.302: Chapter 08
01:32:44.267: Chapter 09
01:41:21.742: Chapter 10
01:45:45.089: Chapter 11
01:48:48.939: Chapter 12

Другие фильмы
У данной публикации пока нет комментариев.
Будь первым, оставь своё мнение в комментариях!
Информация
Посетители, находящиеся в группе Гости, не могут оставлять комментарии к данной публикации.
Самый популярный релиз недели
Донаты
Мы в соц. сетях / RSS

Лучшие релизы месяца
Лучшие SD недели
Лучшие 720p недели
Лучшие 1080p недели
Лучшие 4K недели
Вы недавно смотрели
Реклама
Последние комментарии
...

Bonzo

14 июня 2024 14:52

...

rmzshka

13 июня 2024 17:48

...

rmzshka

13 июня 2024 12:24

...

LisNick

13 июня 2024 08:45

...

SkySpirit

8 июня 2024 19:54

Реклама