+11

Каскадёры / The Fall Guy (2024) WEB-DLRip-AVC от DoMiNo & селезень | D

Информация о фильме
Название: Каскадёры
Оригинальное название: The Fall Guy
Год выхода: 2024
Жанр: Боевик, драма, комедия
Режиссер: Дэвид Литч
В ролях: Райан Гослинг, Эмили Блант, Аарон Тейлор-Джонсон, Ханна Веддингем, Тереза ​​Палмер, Стефани Сью, Уинстон Дьюк, Бен Найт, Матузе, Адам Данн

О фильме:
Потрёпанный жизнью каскадёр Колт нехотя возвращается в профессию, чтобы помочь бывшей девушке Джоди снять первый фильм - блокбастер с многомиллионным бюджетом. Ситуация осложняется пропажей исполнителя главной роли.

Страна: США, Австралия, Канада
Студия: 87North, Australian Government, Management 360, South Australian Film Corporation, Universal Pictures
Продолжительность: 02:07:02
Перевод: Дублированный (Bravo Records Georgia / Movie Dubbing)
Субтитры: Русские (Forced), Английские

Файл
Формат: Matroska
Качество: WEB-DLRip-AVC
Видео: 720x300 at 23.976 fps, [email protected], ~757 kbps
Аудио: AAC, 2 ch, ~78 kbps - | Русский | Каскадёры / The Fall Guy (2024) WEB-DLRip-AVC от DoMiNo & селезень | D
Формат субтитров: softsub (SRT)

Авторизуйтесь для получения доступа к скачиванию

Нет аккаунта? Регистрация открыта и займёт меньше минуты

Вход Регистрация

General
Unique ID: 14864367314361121584366073614401063385 (0xB2EC5E415126F78B2BBC79DB2C4C9D9)
Complete name: B: The.Fall.Guy.2024.DUB.WEB-DLRip.x264.seleZen.mkv
Format: Matroska
Format version: Version 4
File size: 746 MiB
Duration: 2 h 7 min
Overall bit rate: 820 kb/s
Frame rate: 23.976 FPS
Movie name: The.Fall.Guy.2024.DUB.WEB-DLRip.x264.seleZen
Encoded date: 22.05.2024 08:17:47 UTC
Writing application: mkvmerge v84.0 ('Sleeper') 64-bit
Writing library: libebml v1.4.5 + libmatroska v1.7.1
Cover: Yes
Attachments: cover.jpg / small_cover.jpg

Video
ID: 1
Format: AVC
Format/Info: Advanced Video Codec
Format profile: [email protected]
Format settings: CABAC / 14 Ref Frames
Format settings, CABAC: Yes
Format settings, Reference: 14 frames
Codec ID: V_MPEG4/ISO/AVC
Duration: 2 h 7 min
Bit rate: 757 kb/s
Width: 720 pixels
Height: 300 pixels
Display aspect ratio: 2.40:1
Frame rate mode: Constant
Frame rate: 23.976 (24000/1001) FPS
Color space: YUV
Chroma subsampling: 4:2:0
Bit depth: 8 bits
Scan type: Progressive
Bits/(Pixel*Frame): 0.143
Stream size: 672 MiB (90%)
Title: -=DoMiNo=-
Writing library: x264 core 164 r3191 -DoMiNo
Encoding settings: cabac=1 / ref=14 / deblock=1:0:0 / analyse=0×3:0×133 / me=umh / subme=10 / psy=1 / psy_rd=1.00:0.00 / mixed_ref=1 / me_range=32 / chroma_me=1 / trellis=2 / 8×8dct=1 / cqm=0 / deadzone=21,11 / fast_pskip=0 / chroma_qp_offset=-2 / threads=9 / lookahead_threads=2 / sliced_threads=0 / nr=0 / decimate=0 / interlaced=0 / bluray_compat=0 / constrained_intra=0 / bframes=12 / b_pyramid=2 / b_adapt=2 / b_bias=0 / direct=3 / weightb=1 / open_gop=0 / weightp=2 / keyint=240 / keyint_min=23 / scenecut=40 / intra_refresh=0 / rc_lookahead=60 / rc=2pass / mbtree=0 / bitrate=757 / ratetol=1.0 / qcomp=0.80 / qpmin=0 / qpmax=69 / qpstep=4 / cplxblur=20.0 / qblur=0.5 / vbv_maxrate=50000 / vbv_bufsize=62500 / nal_hrd=none / filler=0 / ip_ratio=1.20 / pb_ratio=1.30 / aq=3:1.00
Language: English
Default: Yes
Forced: No
Color range: Limited
Color primaries: BT.709
Transfer characteristics: BT.709
Matrix coefficients: BT.709

Audio
ID: 2
Format: AAC LC SBR
Format/Info: Advanced Audio Codec Low Complexity with Spectral Band Replication
Commercial name: HE-AAC
Format settings: Explicit
Codec ID: A_AAC-2
Duration: 2 h 6 min
Bit rate: 78.7 kb/s
Channel (s): 2 channels
Channel layout: L R
Sampling rate: 48.0 kHz
Frame rate: 23.438 FPS (2048 SPF)
Compression mode: Lossy
Stream size: 71.1 MiB (10%)
Title: Дублированный (Bravo Records Georgia / Movie Dubbing)
Language: Russian
Default: Yes
Forced: No

Text #1
ID: 3
Format: UTF-8
Codec ID: S_TEXT/UTF8
Codec ID/Info: UTF-8 Plain Text
Duration: 2 h 4 min
Bit rate: 5 b/s
Frame rate: 0.014 FPS
Count of elements: 102
Stream size: 5.22 KiB (0%)
Title: Форс
Language: Russian
Default: No
Forced: No

Text #2
ID: 4
Format: UTF-8
Codec ID: S_TEXT/UTF8
Codec ID/Info: UTF-8 Plain Text
Duration: 2 h 6 min
Bit rate: 92 b/s
Frame rate: 0.350 FPS
Count of elements: 2648
Stream size: 85.6 KiB (0%)
Language: English (US)
Default: No
Forced: No

Text #3
ID: 5
Format: UTF-8
Codec ID: S_TEXT/UTF8
Codec ID/Info: UTF-8 Plain Text
Duration: 2 h 6 min
Bit rate: 103 b/s
Frame rate: 0.389 FPS
Count of elements: 2948
Stream size: 96.1 KiB (0%)
Title: SDH
Language: English (US)
Default: No
Forced: No

Menu
00:00:00.000: en: Chapter 01
00:05:53.687: en: Chapter 02
00:11:19.804: en: Chapter 03
00:16:34.160: en: Chapter 04
00:21:20.321: en: Chapter 05
00:27:00.120: en: Chapter 06
00:35:48.398: en: Chapter 07
00:40:11.161: en: Chapter 08
00:44:50.607: en: Chapter 09
00:54:12.293: en: Chapter 10
00:59:57.931: en: Chapter 11
01:06:10.804: en: Chapter 12
01:12:10.622: en: Chapter 13
01:18:48.937: en: Chapter 14
01:27:36.131: en: Chapter 15
01:32:47.317: en: Chapter 16
01:40:14.639: en: Chapter 17
01:45:10.852: en: Chapter 18
01:50:55.655: en: Chapter 19
01:59:36.760: en: Chapter 20

Другие фильмы
У данной публикации пока нет комментариев.
Будь первым, оставь своё мнение в комментариях!
Информация
Посетители, находящиеся в группе Гости, не могут оставлять комментарии к данной публикации.
Самый популярный релиз недели
Донаты
Мы в соц. сетях / RSS

Лучшие релизы месяца
Лучшие SD недели
Лучшие 720p недели
Лучшие 1080p недели
Лучшие 4K недели
Вы недавно смотрели
Реклама
Последние комментарии
...

Bonzo

14 июня 2024 14:52

...

rmzshka

13 июня 2024 17:48

...

rmzshka

13 июня 2024 12:24

...

LisNick

13 июня 2024 08:45

...

SkySpirit

8 июня 2024 19:54

Реклама