+18

Атлас / Atlas (2024) WEB-DLRip 720p от DoMiNo & селезень | D

Информация о фильме
Название: Атлас
Оригинальное название: Atlas
Год выпуска: 2024
Жанр: фантастика, боевик, драма
Режиссёр: Брэд Пейтон / Brad Peyton
В ролях: Дженнифер Лопес, Симу Лю, Марк Стронг, Стерлинг К. Браун, Грег Кохан, Абрахам Попула, Лана Паррия, Бриелла Гуиса, Чарли Хьюсон, Адия Смит-Эрикссон, Логан Хант, Джаред Симабукуро, Альфредо Таварес, Дженис Ахерн

Описание:
События фильма разворачиваются в не столь отдаленном будущем, в котором искусственный интеллект захватил власть над людьми и развязал войну на уничтожение всего человечества. Героиня Дженнифер Лопез — блестящий аналитик Атлас Шепард, всегда с недоверием относившаяся к ИИ. Женщина присоединяется к миссии по поимке робота-отступника, с которым ее связывает загадочное прошлое. Но все идет не по плану, и чтобы не потерять единственный шанс спасти мир от искусственного интеллекта, Атлас должна довериться ему. «Атлас» (2024) — фантастический боевик с Дженнифер Лопез и звездой фильма «Шан-Чи и легенда Десяти колец» Симу Лю в главных ролях.

Страна: США / ASAP Entertainment, Berlanti Productions, Moving Picture Company
Продолжительность: 02:00:05
Перевод: Профессиональный (дублированный) | Videofilm International Ltd. [Израиль]
Субтитры: Русские (Forced, Full), английские (SDH)

Файл
Формат: Matroska
Качество: WEB-DLRip 720p | NF | Исх.Atlas.2024.2160p.NF.WEB-DL.DDP5.1.Atmos.H.265-HHWEB
Видео: 1280x536 at 24.000 fps, [email protected], ~2487 kbps
Аудио 1: AC3, 6 ch, ~640 kbps - | Русский | Атлас / Atlas (2024) WEB-DLRip 720p от DoMiNo & селезень | D
Аудио 2: E-AC3, 6 ch, ~640 kbps - | Русский |
Аудио 3: AC3, 6 ch, ~448 kbps - | Английский |
Формат субтитров: softsub (SRT)

Авторизуйтесь для получения доступа к скачиванию

Нет аккаунта? Регистрация открыта и займёт меньше минуты

Вход Регистрация

General
Unique ID: 328387225142163124694698059429581175941 (0xF70D143B04C3810A82D89CD05DE43C85)
Complete name: S: Atlas.2024.NF.DUB.WEB-DLRip.720p.x264.seleZen.mkv
Format: Matroska
Format version: Version 4
File size: 3.54 GiB
Duration: 2 h 0 min
Overall bit rate: 4 218 kb/s
Frame rate: 24.000 FPS
Movie name: Atlas.2024.NF.DUB.WEB-DLRip.720p.x264.seleZen
Encoded date: 24.05.2024 10:04:00 UTC
Writing application: mkvmerge v84.0 ('Sleeper') 64-bit
Writing library: libebml v1.4.5 + libmatroska v1.7.1
Cover: Yes
Attachments: cover.jpg / small_cover.jpg

Video
ID: 1
Format: AVC
Format/Info: Advanced Video Codec
Format profile: [email protected]
Format settings: CABAC / 5 Ref Frames
Format settings, CABAC: Yes
Format settings, Reference: 5 frames
Codec ID: V_MPEG4/ISO/AVC
Duration: 2 h 0 min
Bit rate: 2 487 kb/s
Width: 1 280 pixels
Height: 536 pixels
Display aspect ratio: 2.39:1
Frame rate mode: Constant
Frame rate: 24.000 FPS
Color space: YUV
Chroma subsampling: 4:2:0
Bit depth: 8 bits
Scan type: Progressive
Bits/(Pixel*Frame): 0.151
Stream size: 2.09 GiB (59%)
Title: -=DoMiNo=-
Writing library: x264 core 164 r3191 -DoMiNo
Encoding settings: cabac=1 / ref=5 / deblock=1:-1:-1 / analyse=0×3:0×133 / me=umh / subme=10 / psy=1 / psy_rd=1.00:0.00 / mixed_ref=1 / me_range=32 / chroma_me=1 / trellis=2 / 8×8dct=1 / cqm=0 / deadzone=21,11 / fast_pskip=0 / chroma_qp_offset=-2 / threads=17 / lookahead_threads=4 / sliced_threads=0 / nr=0 / decimate=1 / interlaced=0 / bluray_compat=0 / constrained_intra=0 / bframes=12 / b_pyramid=2 / b_adapt=2 / b_bias=0 / direct=3 / weightb=1 / open_gop=0 / weightp=2 / keyint=240 / keyint_min=23 / scenecut=40 / intra_refresh=0 / rc_lookahead=60 / rc=crf / mbtree=0 / crf=17.8 / qcomp=0.60 / qpmin=0 / qpmax=69 / qpstep=4 / vbv_maxrate=50000 / vbv_bufsize=62500 / crf_max=0.0 / nal_hrd=none / filler=0 / ip_ratio=1.40 / pb_ratio=1.30 / aq=1:0.90
Language: English
Default: Yes
Forced: No

Audio #1
ID: 2
Format: AC-3
Format/Info: Audio Coding 3
Commercial name: Dolby Digital
Codec ID: A_AC3
Duration: 2 h 0 min
Bit rate mode: Constant
Bit rate: 640 kb/s
Channel (s): 6 channels
Channel layout: L R C LFE Ls Rs
Sampling rate: 48.0 kHz
Frame rate: 31.250 FPS (1536 SPF)
Compression mode: Lossy
Stream size: 550 MiB (15%)
Title: Dub -Videofilm International Ltd.
Language: Russian
Service kind: Complete Main
Default: Yes
Forced: No
Dialog Normalization: -27 dB
compr: -0.28 dB
cmixlev: -3.0 dB
surmixlev: -3 dB
mixlevel: 285 dB
roomtyp: 3
ltrtcmixlev: -3.0 dB
ltrtsurmixlev: -3.0 dB
lorocmixlev: -3.0 dB
lorosurmixlev: -4.5 dB
dialnorm_Average: -27 dB
dialnorm_Minimum: -27 dB
dialnorm_Maximum: -27 dB

Audio #2
ID: 3
Format: E-AC-3
Format/Info: Enhanced AC-3
Commercial name: Dolby Digital Plus
Codec ID: A_EAC3
Duration: 2 h 0 min
Bit rate mode: Constant
Bit rate: 640 kb/s
Channel (s): 6 channels
Channel layout: L R C LFE Ls Rs
Sampling rate: 48.0 kHz
Frame rate: 31.250 FPS (1536 SPF)
Compression mode: Lossy
Stream size: 550 MiB (15%)
Title: Dub -Videofilm International Ltd.
Language: Russian
Service kind: Complete Main
Default: No
Forced: No
Dialog Normalization: -27 dB
compr: -0.28 dB
dialnorm_Average: -27 dB
dialnorm_Minimum: -27 dB
dialnorm_Maximum: -27 dB

Audio #3
ID: 4
Format: AC-3
Format/Info: Audio Coding 3
Commercial name: Dolby Digital
Codec ID: A_AC3
Duration: 2 h 0 min
Bit rate mode: Constant
Bit rate: 448 kb/s
Channel (s): 6 channels
Channel layout: L R C LFE Ls Rs
Sampling rate: 48.0 kHz
Frame rate: 31.250 FPS (1536 SPF)
Compression mode: Lossy
Stream size: 385 MiB (11%)
Title: Original
Language: English
Service kind: Complete Main
Default: No
Forced: No
Dialog Normalization: -31 dB
cmixlev: -4.5 dB
surmixlev: -6 dB
dialnorm_Average: -31 dB
dialnorm_Minimum: -31 dB
dialnorm_Maximum: -31 dB

Text #1
ID: 5
Format: UTF-8
Codec ID: S_TEXT/UTF8
Codec ID/Info: UTF-8 Plain Text
Duration: 1 h 48 min
Bit rate: 2 b/s
Frame rate: 0.009 FPS
Count of elements: 57
Stream size: 1.88 KiB (0%)
Title: Forced
Language: Russian
Default: No
Forced: No

Text #2
ID: 6
Format: UTF-8
Codec ID: S_TEXT/UTF8
Codec ID/Info: UTF-8 Plain Text
Duration: 1 h 57 min
Bit rate: 83 b/s
Frame rate: 0.188 FPS
Count of elements: 1319
Stream size: 71.5 KiB (0%)
Title: Full
Language: Russian
Default: No
Forced: No

Text #3
ID: 7
Format: UTF-8
Codec ID: S_TEXT/UTF8
Codec ID/Info: UTF-8 Plain Text
Duration: 1 h 48 min
Bit rate: 67 b/s
Frame rate: 0.254 FPS
Count of elements: 1652
Stream size: 53.4 KiB (0%)
Title: SDH
Language: English
Default: No
Forced: No

Menu
00:00:00.000: en: Part 01
01:48:47.000: en: Credits

Другие фильмы
У данной публикации пока нет комментариев.
Будь первым, оставь своё мнение в комментариях!
Информация
Посетители, находящиеся в группе Гости, не могут оставлять комментарии к данной публикации.
Самый популярный релиз недели
Донаты
Мы в соц. сетях / RSS

Лучшие релизы месяца
Лучшие SD недели
Лучшие 720p недели
Лучшие 1080p недели
Лучшие 4K недели
Вы недавно смотрели
Реклама
Последние комментарии
...

Bonzo

14 июня 2024 14:52

...

rmzshka

13 июня 2024 17:48

...

rmzshka

13 июня 2024 12:24

...

LisNick

13 июня 2024 08:45

...

SkySpirit

8 июня 2024 19:54

Реклама