+6

Ты не сможешь убегать вечно / You Can't Run Forever (2024) WEB-DL 720p от селезень | P

Информация о фильме
Название: Ты не сможешь убегать вечно
Оригинальное название: You Can't Run Forever
Год выпуска: 2024
Жанр: триллер
Режиссер: Мишель Шумахер / Michelle Schumacher
В ролях: Джей Кэй Симмонс, Фернанда Уррехола, Аллен Лич, Изабель Анайа, Майкл Спирс, Рэнди Гонсалес, Грэм Патрик Мартин, Нэйтан Винченти, Оливия Симмонс, Андрес Велес, Кевин Куинн, Алет Тейлор, Микаела Пун, Бо Лайнелл, Джун Клемонс, Макс Гарфин, Энди Тейлор (II), Мэтт Фландерс, Паркер Фенади, Анна Стоун, Дэн Шарки, Джоанна Чиампа

О фильме:
Девушка-подросток Миранда страдает от острой тревожности. В один момент героиня сталкивается с новым ужасом, когда серийный убийца выбирает её в качестве своей мишени. Чтобы сохранить жизнь, Миранде приходится скрываться от своего преследователя в лесу.

Выпущено: США / Rubber Tree Productions
Продолжительность: 01:42:44
Перевод: Профессиональный (многоголосый, закадровый) | TVShows (Thx. SunOfABeach)
Субтитры: Английские (Full, SDH)

Файл
Формат: Matroska
Качество: WEB-DL 720p | AMZN
Видео: 1280x640 at 23.976 fps, MPEG-4 AVC, ~4740 kbps
Аудио 1: AC3, 6 ch, ~640 kbps - | Русский | Ты не сможешь убегать вечно / You Can't Run Forever (2024) WEB-DL 720p от селезень | P
Аудио 2: E-AC3, 6 ch, ~640 kbps - | Английский |
Формат субтитров: softsub (SRT)

Авторизуйтесь для получения доступа к скачиванию

Нет аккаунта? Регистрация открыта и займёт меньше минуты

Вход Регистрация

General
Unique ID: 177085102228063777099871890678761085606 (0×853959A0B7715230BACA4D6F1CD35AA6)
Complete name: T: You.Cant.Run.Forever.2024.AMZN.WEB-DL.720p.x264.seleZen.mkv
Format: Matroska
Format version: Version 4
File size: 4.32 GiB
Duration: 1 h 42 min
Overall bit rate: 6 023 kb/s
Frame rate: 23.976 FPS
Movie name: You.Cant.Run.Forever.2024.AMZN.WEB-DL.720p.x264.seleZen
Encoded date: 24.05.2024 17:57:13 UTC
Writing application: mkvmerge v84.0 ('Sleeper') 64-bit
Writing library: libebml v1.4.5 + libmatroska v1.7.1
Cover: Yes
Attachments: cover.jpg / small_cover.jpg

Video
ID: 1
Format: AVC
Format/Info: Advanced Video Codec
Format profile: [email protected]
Format settings: CABAC / 4 Ref Frames
Format settings, CABAC: Yes
Format settings, Reference: 4 frames
Codec ID: V_MPEG4/ISO/AVC
Duration: 1 h 42 min
Bit rate mode: Constant
Bit rate: 4 740 kb/s
Nominal bit rate: 6 000 kb/s
Width: 1 280 pixels
Height: 640 pixels
Display aspect ratio: 2.000
Frame rate mode: Constant
Frame rate: 23.976 (24000/1001) FPS
Color space: YUV
Chroma subsampling: 4:2:0
Bit depth: 8 bits
Scan type: Progressive
Bits/(Pixel*Frame): 0.241
Stream size: 3.40 GiB (79%)
Title: -=DoMiNo=-
Language: English
Default: Yes
Forced: No
Color range: Limited
Color primaries: BT.709
Transfer characteristics: BT.709
Matrix coefficients: BT.709

Audio #1
ID: 2
Format: AC-3
Format/Info: Audio Coding 3
Commercial name: Dolby Digital
Codec ID: A_AC3
Duration: 1 h 42 min
Bit rate mode: Constant
Bit rate: 640 kb/s
Channel (s): 6 channels
Channel layout: L R C LFE Ls Rs
Sampling rate: 48.0 kHz
Frame rate: 31.250 FPS (1536 SPF)
Compression mode: Lossy
Stream size: 470 MiB (11%)
Title: MVO — TVShows
Language: Russian
Service kind: Complete Main
Default: Yes
Forced: No
Dialog Normalization: -31 dB
cmixlev: -4.5 dB
surmixlev: -6 dB
dialnorm_Average: -31 dB
dialnorm_Minimum: -31 dB
dialnorm_Maximum: -31 dB

Audio #2
ID: 3
Format: E-AC-3
Format/Info: Enhanced AC-3
Commercial name: Dolby Digital Plus
Codec ID: A_EAC3
Duration: 1 h 42 min
Bit rate mode: Constant
Bit rate: 640 kb/s
Channel (s): 6 channels
Channel layout: L R C LFE Ls Rs
Sampling rate: 48.0 kHz
Frame rate: 31.250 FPS (1536 SPF)
Compression mode: Lossy
Stream size: 470 MiB (11%)
Language: English
Service kind: Complete Main
Default: No
Forced: No
Dialog Normalization: -31 dB
compr: -0.28 dB
dialnorm_Average: -31 dB
dialnorm_Minimum: -31 dB
dialnorm_Maximum: -31 dB

Text #1
ID: 4
Format: UTF-8
Codec ID: S_TEXT/UTF8
Codec ID/Info: UTF-8 Plain Text
Duration: 1 h 39 min
Bit rate: 39 b/s
Frame rate: 0.204 FPS
Count of elements: 1223
Stream size: 28.8 KiB (0%)
Language: English
Default: No
Forced: No

Text #2
ID: 5
Format: UTF-8
Codec ID: S_TEXT/UTF8
Codec ID/Info: UTF-8 Plain Text
Duration: 1 h 42 min
Bit rate: 50 b/s
Frame rate: 0.258 FPS
Count of elements: 1590
Stream size: 37.7 KiB (0%)
Title: SDH
Language: English
Default: No
Forced: No

Menu
00:00:00.000: en: Scene 01
01:39:23.041: en: End Credits

Другие фильмы
У данной публикации пока нет комментариев.
Будь первым, оставь своё мнение в комментариях!
Информация
Посетители, находящиеся в группе Гости, не могут оставлять комментарии к данной публикации.
Самый популярный релиз недели
Донаты
Мы в соц. сетях / RSS

Лучшие релизы месяца
Лучшие SD недели
Лучшие 720p недели
Лучшие 1080p недели
Лучшие 4K недели
Вы недавно смотрели
Реклама
Последние комментарии
...

Bonzo

14 июня 2024 14:52

...

rmzshka

13 июня 2024 17:48

...

rmzshka

13 июня 2024 12:24

...

LisNick

13 июня 2024 08:45

...

SkySpirit

8 июня 2024 19:54

Реклама