+12

Проклятие дудочника / The Piper (2023) BDRip 720p от DoMiNo & селезень | D

Информация о фильме
Название: Проклятие дудочника
Оригинальное название: The Piper
Год выхода: 2023
Жанр: Ужасы
Режиссер: Эрлингур Тороддсен
В ролях: Шарлотта Хоуп, Джулиан Сэндс, Алексис Родни, Оливер Сэвелл, Филипп Кристофер, Кейт Николс, Луиз Голд, Саломе Чандлер, Ива О’Флэнаган, Пиппа Уинслоу

Описание:
Древняя легенда о Пегом Дудочнике пугала людей на протяжении веков. Но что, если не все в ней вымысел, а мистический странник в пёстром костюме, который безжалостно обрекал целые поселения на смерть, существует? Мэл далека от древних историй: она обычный музыкант в современном мире и старается лишь обеспечить свою дочь. Однажды ей удается наиграть мелодию, способную вводить людей в транс, но таким даром легендарный Гамельнский крысолов делиться не станет. Теперь древнее зло опять появится в этом мире, чтобы написать новую кровавую историю.

Страна: США
Студия: Millennium Media
Продолжительность: 01:35:30
Перевод: Профессиональный (полное дублирование) | Велес
Субтитры: Английские (Full, SDH)

Файл
Формат: Matroska
Качество: BDRip 720p | Исх.The Piper 2024 1080p EUR Blu-ray AVC DTS-HD MA 5.1-Tasko
Видео: 1280x536 at 24.000 fps, [email protected], ~4838 kbps
Аудио 1: AC3, 6 ch, ~384 kbps - | Русский | Проклятие дудочника / The Piper (2023) BDRip 720p от DoMiNo & селезень | D
Аудио 2: E-AC3, 6 ch, ~384 kbps - | Русский |
Аудио 3: AC3, 6 ch, ~640 kbps - | Английский |
Формат субтитров: softsub (SRT)

Авторизуйтесь для получения доступа к скачиванию

Нет аккаунта? Регистрация открыта и займёт меньше минуты

Вход Регистрация

x264 [info]: frame I: 898 Avg QP: 13.14 size: 101433
x264 [info]: frame P: 26876 Avg QP: 14.83 size: 44525
x264 [info]: frame B: 109735 Avg QP: 17.22 size: 19839
x264 [info]: consecutive B-frames: 2,3% 3,4% 3,9% 6,5% 11,1% 54,0% 6,8% 1,3% 1,9% 1,8% 2,0% 1,5% 1,7% 1,3% 0,5%

General
Unique ID: 136555251333861727118507066121387295556 (0×66BB95B2E0EC6494F51A57F8D064C344)
Complete name: S: The.Piper.2023.DUB.BDRip.720p.x264.seleZen.mkv
Format: Matroska
Format version: Version 4
File size: 4.17 GiB
Duration: 1 h 35 min
Overall bit rate: 6 249 kb/s
Frame rate: 24.000 FPS
Movie name: The.Piper.2023.DUB.BDRip.720p.x264.seleZen
Encoded date: 25.05.2024 08:52:48 UTC
Writing application: mkvmerge v84.0 ('Sleeper') 64-bit
Writing library: libebml v1.4.5 + libmatroska v1.7.1
Cover: Yes
Attachments: cover.jpg / small_cover.jpg

Video
ID: 1
Format: AVC
Format/Info: Advanced Video Codec
Format profile: [email protected]
Format settings: CABAC / 12 Ref Frames
Format settings, CABAC: Yes
Format settings, Reference: 12 frames
Codec ID: V_MPEG4/ISO/AVC
Duration: 1 h 35 min
Bit rate: 4 838 kb/s
Width: 1 280 pixels
Height: 536 pixels
Display aspect ratio: 2.39:1
Frame rate mode: Constant
Frame rate: 24.000 FPS
Color space: YUV
Chroma subsampling: 4:2:0
Bit depth: 8 bits
Scan type: Progressive
Bits/(Pixel*Frame): 0.294
Stream size: 3.23 GiB (77%)
Title: -=DoMiNo=-
Writing library: x264 core 164 r3191 -DoMiNo
Encoding settings: cabac=1 / ref=12 / deblock=1:-2:-2 / analyse=0×3:0×133 / me=umh / subme=10 / psy=1 / psy_rd=1.00:0.00 / mixed_ref=1 / me_range=32 / chroma_me=1 / trellis=2 / 8×8dct=1 / cqm=0 / deadzone=21,11 / fast_pskip=0 / chroma_qp_offset=-2 / threads=17 / lookahead_threads=4 / sliced_threads=0 / nr=0 / decimate=1 / interlaced=0 / bluray_compat=0 / constrained_intra=0 / bframes=14 / b_pyramid=2 / b_adapt=2 / b_bias=0 / direct=3 / weightb=1 / open_gop=0 / weightp=2 / keyint=240 / keyint_min=24 / scenecut=40 / intra_refresh=0 / rc_lookahead=60 / rc=crf / mbtree=0 / crf=17.5 / qcomp=0.60 / qpmin=0 / qpmax=69 / qpstep=4 / vbv_maxrate=50000 / vbv_bufsize=62500 / crf_max=0.0 / nal_hrd=none / filler=0 / ip_ratio=1.40 / pb_ratio=1.30 / aq=3:0.80
Language: English
Default: Yes
Forced: No

Audio #1
ID: 2
Format: AC-3
Format/Info: Audio Coding 3
Commercial name: Dolby Digital
Codec ID: A_AC3
Duration: 1 h 35 min
Bit rate mode: Constant
Bit rate: 384 kb/s
Channel (s): 6 channels
Channel layout: L R C LFE Ls Rs
Sampling rate: 48.0 kHz
Frame rate: 31.250 FPS (1536 SPF)
Compression mode: Lossy
Stream size: 262 MiB (6%)
Title: Дублированный | Велес
Language: Russian
Service kind: Complete Main
Default: Yes
Forced: No
Dialog Normalization: -24 dB
compr: -0.28 dB
cmixlev: -3.0 dB
surmixlev: -3 dB
dmixmod: Lo/Ro
ltrtcmixlev: -3.0 dB
ltrtsurmixlev: -3.0 dB
lorocmixlev: -3.0 dB
lorosurmixlev: -3.0 dB
dialnorm_Average: -24 dB
dialnorm_Minimum: -24 dB
dialnorm_Maximum: -24 dB

Audio #2
ID: 3
Format: E-AC-3
Format/Info: Enhanced AC-3
Commercial name: Dolby Digital Plus
Codec ID: A_EAC3
Duration: 1 h 35 min
Bit rate mode: Constant
Bit rate: 384 kb/s
Channel (s): 6 channels
Channel layout: L R C LFE Ls Rs
Sampling rate: 48.0 kHz
Frame rate: 31.250 FPS (1536 SPF)
Compression mode: Lossy
Stream size: 262 MiB (6%)
Title: Дублированный | Велес
Language: Russian
Service kind: Complete Main
Default: No
Forced: No
Dialog Normalization: -24 dB
compr: -0.28 dB
dmixmod: Lo/Ro
ltrtcmixlev: -3.0 dB
ltrtsurmixlev: -3.0 dB
lorocmixlev: -3.0 dB
lorosurmixlev: -3.0 dB
dialnorm_Average: -24 dB
dialnorm_Minimum: -24 dB
dialnorm_Maximum: -24 dB

Audio #3
ID: 4
Format: AC-3
Format/Info: Audio Coding 3
Commercial name: Dolby Digital
Codec ID: A_AC3
Duration: 1 h 35 min
Bit rate mode: Constant
Bit rate: 640 kb/s
Channel (s): 6 channels
Channel layout: L R C LFE Ls Rs
Sampling rate: 48.0 kHz
Frame rate: 31.250 FPS (1536 SPF)
Compression mode: Lossy
Stream size: 437 MiB (10%)
Title: Original
Language: English
Service kind: Complete Main
Default: No
Forced: No
Dialog Normalization: -31 dB
cmixlev: -4.5 dB
surmixlev: -6 dB
dialnorm_Average: -31 dB
dialnorm_Minimum: -31 dB
dialnorm_Maximum: -31 dB

Text #1
ID: 5
Format: UTF-8
Codec ID: S_TEXT/UTF8
Codec ID/Info: UTF-8 Plain Text
Duration: 1 h 28 min
Bit rate: 34 b/s
Frame rate: 0.134 FPS
Count of elements: 713
Stream size: 22.0 KiB (0%)
Title: Full
Language: English
Default: No
Forced: No

Text #2
ID: 6
Format: UTF-8
Codec ID: S_TEXT/UTF8
Codec ID/Info: UTF-8 Plain Text
Duration: 1 h 34 min
Bit rate: 47 b/s
Frame rate: 0.225 FPS
Count of elements: 1272
Stream size: 32.8 KiB (0%)
Title: SDH
Language: English
Default: No
Forced: No

Menu
00:00:00.000: en: Chapter 01
00:07:31.958: en: Chapter 02
00:12:49.625: en: Chapter 03
00:22:19.625: en: Chapter 04
00:28:32.458: en: Chapter 05
00:37:23.458: en: Chapter 06
00:44:45.625: en: Chapter 07
00:52:32.333: en: Chapter 08
01:03:23.792: en: Chapter 09
01:09:04.583: en: Chapter 10
01:18:31.792: en: Chapter 11
01:27:00.958: en: Chapter 12
01:35:28.750: en: Chapter 13

Другие фильмы
У данной публикации пока нет комментариев.
Будь первым, оставь своё мнение в комментариях!
Информация
Посетители, находящиеся в группе Гости, не могут оставлять комментарии к данной публикации.
Самый популярный релиз недели
Донаты
Мы в соц. сетях / RSS

Лучшие релизы месяца
Лучшие SD недели
Лучшие 720p недели
Лучшие 1080p недели
Лучшие 4K недели
Вы недавно смотрели
Реклама
Последние комментарии
...

Bonzo

14 июня 2024 14:52

...

rmzshka

13 июня 2024 17:48

...

rmzshka

13 июня 2024 12:24

...

LisNick

13 июня 2024 08:45

...

SkySpirit

8 июня 2024 19:54

Реклама