+10

Проект «Гутенберг» / Mou seung / Wu shuang / Project Gutenberg (2018) HDRip-AVC от DoMiNo & селезень | P

Информация о фильме
Название: Проект «Гутенберг»
Оригинальное название: Mou seung / Wu shuang / Project Gutenberg
Год выхода: 2018
Жанр: боевик, криминал, детектив
Режиссер: Феликс Чон
В ролях: Чоу Юнь-Фат, Аарон Квок, Чжан Цзинчу, Кэтрин Чау, Джойс Фэн, Дэвид Ван, Лю Кай-Чи, Joanne Brandon, Дено Чун, Джастин Чун

О фильме:
Сидящего в тюрьме мошенника Ли Маня вызывают на допрос в полицию. Его бывшая подруга Юэнь, а ныне — всемирно признанная художница, хочет внести за него залог, и теперь полиция пытается выяснить всё, что тот знает о своём бывшем подельнике по кличке Художник. Некоторое время назад Ли Мань жил в Канаде и безуспешно пытался стать настоящим творцом, но арт-агенты хотели выставлять только работы Юэнь. Парень уже почти отчаялся, когда на него вышел Художник и предложил вместе с командой профессионалов создать супердоллары — неотличимые от настоящих подделки.

Страна: Китай, Гонконг
Студия: Bona Film Group, Emperor Multimedia Group (EMG), Pop Movies
Продолжительность: 02:10:40
Перевод: Профессиональный (многоголосый закадровый) OKKO
Субтитры: Английские

Файл
Формат: Matroska
Качество: HDRip-AVC
Видео: 1024x428 at 24.000 fps, [email protected], ~2161 kbps
Аудио: AC3, 6 ch, ~384 kbps - | Русский | Проект «Гутенберг» / Mou seung / Wu shuang / Project Gutenberg (2018) HDRip-AVC от DoMiNo & селезень | P
Формат субтитров: softsub (SRT)

Авторизуйтесь для получения доступа к скачиванию

Нет аккаунта? Регистрация открыта и займёт меньше минуты

Вход Регистрация

General
Unique ID: 197500550210147158210448918063675607757 (0×949538ED20758666DDE13A9FB06C0ACD)
Complete name: R: Project.Gutenberg.2018.MVO.x264.seleZen.mkv
Format: Matroska
Format version: Version 4
File size: 2.33 GiB
Duration: 2 h 10 min
Overall bit rate: 2 547 kb/s
Frame rate: 24.000 FPS
Movie name: Project.Gutenberg.2018.MVO.x264.seleZen
Encoded date: 07.06.2024 07:57:48 UTC
Writing application: mkvmerge v85.0 ('Shame For You') 64-bit
Writing library: libebml v1.4.5 + libmatroska v1.7.1
Cover: Yes
Attachments: cover.jpg / small_cover.jpg

Video
ID: 1
Format: AVC
Format/Info: Advanced Video Codec
Format profile: [email protected]
Format settings: CABAC / 14 Ref Frames
Format settings, CABAC: Yes
Format settings, Reference: 14 frames
Codec ID: V_MPEG4/ISO/AVC
Duration: 2 h 10 min
Bit rate: 2 161 kb/s
Width: 1 024 pixels
Height: 428 pixels
Display aspect ratio: 2.39:1
Frame rate mode: Constant
Frame rate: 24.000 FPS
Color space: YUV
Chroma subsampling: 4:2:0
Bit depth: 8 bits
Scan type: Progressive
Bits/(Pixel*Frame): 0.205
Stream size: 1.97 GiB (85%)
Title: -=DoMiNo=-
Writing library: x264 core 164 r3191 -DoMiNo
Encoding settings: cabac=1 / ref=14 / deblock=1:-3:-2 / analyse=0×3:0×133 / me=umh / subme=10 / psy=1 / psy_rd=1.05:0.00 / mixed_ref=1 / me_range=32 / chroma_me=1 / trellis=2 / 8×8dct=1 / cqm=0 / deadzone=21,11 / fast_pskip=0 / chroma_qp_offset=-2 / threads=13 / lookahead_threads=3 / sliced_threads=0 / nr=0 / decimate=1 / interlaced=0 / bluray_compat=0 / constrained_intra=0 / bframes=14 / b_pyramid=2 / b_adapt=2 / b_bias=0 / direct=3 / weightb=1 / open_gop=0 / weightp=2 / keyint=240 / keyint_min=24 / scenecut=40 / intra_refresh=0 / rc_lookahead=60 / rc=crf / mbtree=0 / crf=19.3 / qcomp=0.60 / qpmin=0 / qpmax=69 / qpstep=4 / vbv_maxrate=50000 / vbv_bufsize=62500 / crf_max=0.0 / nal_hrd=none / filler=0 / ip_ratio=1.40 / pb_ratio=1.30 / aq=1:0.80
Language: Chinese
Default: Yes
Forced: No

Audio
ID: 2
Format: AC-3
Format/Info: Audio Coding 3
Commercial name: Dolby Digital
Codec ID: A_AC3
Duration: 2 h 10 min
Bit rate mode: Constant
Bit rate: 384 kb/s
Channel (s): 6 channels
Channel layout: L R C LFE Ls Rs
Sampling rate: 48.0 kHz
Frame rate: 31.250 FPS (1536 SPF)
Compression mode: Lossy
Stream size: 359 MiB (15%)
Title: MVO -OKKO
Language: Russian
Service kind: Complete Main
Default: Yes
Forced: No
Dialog Normalization: -24 dB
compr: -0.28 dB
cmixlev: -3.0 dB
surmixlev: -3 dB
mixlevel: 285 dB
roomtyp: 3
ltrtcmixlev: -3.0 dB
ltrtsurmixlev: -3.0 dB
lorocmixlev: -3.0 dB
lorosurmixlev: -4.5 dB
dialnorm_Average: -24 dB
dialnorm_Minimum: -24 dB
dialnorm_Maximum: -24 dB

Text
ID: 3
Format: UTF-8
Codec ID: S_TEXT/UTF8
Codec ID/Info: UTF-8 Plain Text
Duration: 2 h 3 min
Bit rate: 38 b/s
Frame rate: 0.191 FPS
Count of elements: 1417
Stream size: 34.8 KiB (0%)
Title: English
Language: English
Default: No
Forced: No

Menu
00:00:00.000: en: Chapter 01
00:05:30.875: en: Chapter 02
00:10:19.583: en: Chapter 03
00:15:24.000: en: Chapter 04
00:21:28.458: en: Chapter 05
00:29:20.583: en: Chapter 06
00:34:57.333: en: Chapter 07
00:44:10.875: en: Chapter 08
00:55:46.583: en: Chapter 09
01:03:40.708: en: Chapter 10
01:11:23.750: en: Chapter 11
01:20:25.833: en: Chapter 12
01:25:26.042: en: Chapter 13
01:30:21.167: en: Chapter 14
01:34:57.250: en: Chapter 15
01:43:10.792: en: Chapter 16
01:49:39.125: en: Chapter 17
01:55:43.208: en: Chapter 18
01:58:50.417: en: Chapter 19
02:06:48.250: en: Chapter 20

Другие фильмы
Комментарии:

...
diabloq 8 июня 2024 16:11
+1

 1024x428 - издевательство какое-то. Для чего такую картинку выкладывать?

Информация
Посетители, находящиеся в группе Гости, не могут оставлять комментарии к данной публикации.
Самый популярный релиз недели
Донаты
Мы в соц. сетях / RSS

Лучшие релизы месяца
Лучшие SD недели
Лучшие 720p недели
Лучшие 1080p недели
Лучшие 4K недели
Вы недавно смотрели
Реклама
Последние комментарии
...

Bonzo

14 июня 2024 14:52

...

rmzshka

13 июня 2024 17:48

...

rmzshka

13 июня 2024 12:24

...

LisNick

13 июня 2024 08:45

...

SkySpirit

8 июня 2024 19:54

Реклама