+7

Список подозреваемых / Могильник / Boneyard (2024) WEB-DLRip от DoMiNo & селезень | P2

Информация о фильме
Название: Список подозреваемых / Могильник
Оригинальное название: Boneyard
Год выхода: 2024
Жанр: боевик, триллер, драма, криминал, детектив
Режиссер: Азиф Акбар
В ролях: Брайан Ван Холт, Мэл Гибсон, Нора Зеетнер, Габриэль Хоф, Фифти Сент, Спайс Уильямс, Уэстон Кейдж, Майкл Сироу, Шон Патрик Брайан, Бренна Мари Нарайан и др.

О фильме:
Лучшие агенты ФБР и полиция разыскивают серийного преступника, жестоко убившего 11 женщин. След удается взять только детективу Ортега, но после того, как пропадает его племянница, дело принимает еще более опасный поворот. Под подозрением находится каждый, кто ведет расследование.

Страна: США
Продолжительность: 01:36:44
Перевод: Профессиональный (двухголосый, закадровый) | ViruseProject 18+

Файл
Формат: AVI
Качество: WEB-DLRip
Видео: 720x304 at 23.976 fps, XviD 69, ~1765 kbps
Аудио 1: AC3, 2 ch, ~192 kbps - | Русский | Список подозреваемых / Могильник / Boneyard (2024) WEB-DLRip от DoMiNo & селезень | P2
Аудио 2: AC3, 2 ch, ~192 kbps - | Английский |
Субтитры: Нет

Авторизуйтесь для получения доступа к скачиванию

Нет аккаунта? Регистрация открыта и займёт меньше минуты

Вход Регистрация

General
Complete name: U: Boneyard.2024.DVO.WEB-DLRip.x264.seleZen.avi
Format: AVI
Format/Info: Audio Video Interleave
Format settings: BitmapInfoHeader / WaveFormatEx
File size: 1.46 GiB
Duration: 1 h 36 min
Overall bit rate: 2 163 kb/s
Frame rate: 23.976 FPS
Movie name: Boneyard.2024.DVO.WEB-DLRip.x264.seleZen
Writing application: VirtualDubModRus 1.5.10.2 (build 2542/release)
Writing library: VirtualDubMod build 2542/release
Copyright: -=DoMiNo=-

Video
ID: 0
Format: MPEG-4 Visual
Format profile: Advanced Simple@L5
Format settings: BVOP1 / Custom Matrix
Format settings, BVOP: 1
Format settings, QPel: No
Format settings, GMC: No warppoints
Format settings, Matrix: Custom
Codec ID: XVID
Codec ID/Hint: XviD
Duration: 1 h 36 min
Bit rate: 1 765 kb/s
Width: 720 pixels
Height: 304 pixels
Display aspect ratio: 2.40:1
Frame rate: 23.976 (24000/1001) FPS
Color space: YUV
Chroma subsampling: 4:2:0
Bit depth: 8 bits
Scan type: Progressive
Compression mode: Lossy
Bits/(Pixel*Frame): 0.336
Stream size: 1.19 GiB (82%)
Writing library: XviD 69

Audio #1
ID: 1
Format: AC-3
Format/Info: Audio Coding 3
Commercial name: Dolby Digital
Codec ID: 2000
Duration: 1 h 36 min
Bit rate mode: Constant
Bit rate: 192 kb/s
Channel (s): 2 channels
Channel layout: L R
Sampling rate: 48.0 kHz
Frame rate: 31.250 FPS (1536 SPF)
Compression mode: Lossy
Stream size: 133 MiB (9%)
Alignment: Split across interleaves
Interleave, duration: 42 ms (1.00 video frame)
Interleave, preload duratio: 500 ms
Service kind: Complete Main
Dialog Normalization: -31 dB
compr: -0.28 dB
mixlevel: 284 dB
roomtyp: 3
ltrtcmixlev: -3.0 dB
ltrtsurmixlev: -3.0 dB
lorocmixlev: -3.0 dB
lorosurmixlev: -3.0 dB
dialnorm_Average: -31 dB
dialnorm_Minimum: -31 dB
dialnorm_Maximum: -31 dB

Audio #2
ID: 2
Format: AC-3
Format/Info: Audio Coding 3
Commercial name: Dolby Digital
Codec ID: 2000
Duration: 1 h 36 min
Bit rate mode: Constant
Bit rate: 192 kb/s
Channel (s): 2 channels
Channel layout: L R
Sampling rate: 48.0 kHz
Frame rate: 31.250 FPS (1536 SPF)
Compression mode: Lossy
Stream size: 133 MiB (9%)
Alignment: Split across interleaves
Interleave, duration: 42 ms (1.00 video frame)
Interleave, preload duratio: 500 ms
Service kind: Complete Main
Dialog Normalization: -31 dB
dialnorm_Average: -31 dB
dialnorm_Minimum: -31 dB
dialnorm_Maximum: -31 dB

Другие фильмы
У данной публикации пока нет комментариев.
Будь первым, оставь своё мнение в комментариях!
Информация
Посетители, находящиеся в группе Гости, не могут оставлять комментарии к данной публикации.
Самый популярный релиз недели
Донаты
Мы в соц. сетях / RSS

Лучшие релизы месяца
Лучшие SD недели
Лучшие 720p недели
Лучшие 1080p недели
Лучшие 4K недели
Вы недавно смотрели
Реклама
Последние комментарии
...

fataxdd

16 июля 2024 07:13

...

Rustik99

12 июля 2024 10:11

...

Rograr

6 июля 2024 19:56

...

fenix

2 июля 2024 07:45

...

Fidelrus

28 июня 2024 13:53

Реклама