+4

Загадка волшебного острова / Berend Botje / Charlie Cooper - The Egg Mystery (2021) WEB-DLRip от DoMiNo & селезень | D

Информация о фильме
Название: Загадка волшебного острова
Оригинальное название: Berend Botje / Charlie Cooper - The Egg Mystery
Год выпуска: 2021
Жанр: приключения, семейный
Режиссер: Манс ван ден Берг
В ролях: Дорис Зюйдерланд, Томас Акда, Клаас ван Круйстум, Джастин Дос Сантос, Петр Гольштейн, Маттейн Хартеминк, Тедо Кайцер, Барт Клевер, Зомайра Ноувен, Сюзан Раддер

Описание:
Юная Чарли Купер мечтает о путешествиях и хочет стать капитаном, как ее папа и дед. По дороге в школу она случайно обнаруживает чрезвычайно редкое яйцо птицы, считавшейся вымершей. Эта находка привлекает внимание хитрого мэра, одержимого идеей прославиться. Яйцо у девочки отбирают. Но Чарли не промах, и не собирается так легко сдаваться, к тому же она узнает, что птенец может вылупиться из яйца только на родине, на далеком таинственном острове. Она отправляется туда вместе с друзьями.

Выпущено: Нидерланды / NOBS Entertainment, NewBe
Продолжительность: 01:20:29
Перевод: Дублированный | Moygolos

Файл
Формат: AVI
Качество: WEB-DLRip
Видео: 720x304 at 24.000 fps, XviD 69, ~1987 kbps
Аудио: AC3, 6 ch, ~448 kbps - | Русский | Загадка волшебного острова / Berend Botje / Charlie Cooper - The Egg Mystery (2021) WEB-DLRip от DoMiNo & селезень | D
Субтитры: Отсутствуют

Авторизуйтесь для получения доступа к скачиванию

Нет аккаунта? Регистрация открыта и займёт меньше минуты

Вход Регистрация

General
Complete name: U: Berend.Botje.2021.DUB.WEB-DLRip.seleZen.avi
Format: AVI
Format/Info: Audio Video Interleave
Format settings: BitmapInfoHeader / WaveFormatEx
File size: 1.37 GiB
Duration: 1 h 20 min
Overall bit rate: 2 444 kb/s
Frame rate: 24.000 FPS
Movie name: Berend.Botje.2021.DUB.WEB-DLRip.seleZen
Writing application: VirtualDubModRus 1.5.10.2 (build 2542/release)
Writing library: VirtualDubMod build 2542/release
Copyright: -=DoMiNo=-

Video
ID: 0
Format: MPEG-4 Visual
Format profile: Advanced Simple@L5
Format settings: BVOP1 / Custom Matrix
Format settings, BVOP: 1
Format settings, QPel: No
Format settings, GMC: No warppoints
Format settings, Matrix: Custom
Codec ID: XVID
Codec ID/Hint: XviD
Duration: 1 h 20 min
Bit rate: 1 987 kb/s
Width: 720 pixels
Height: 304 pixels
Display aspect ratio: 2.39:1
Frame rate: 24.000 FPS
Color space: YUV
Chroma subsampling: 4:2:0
Bit depth: 8 bits
Scan type: Progressive
Compression mode: Lossy
Bits/(Pixel*Frame): 0.378
Stream size: 1.12 GiB (81%)
Writing library: XviD 69

Audio
ID: 1
Format: AC-3
Format/Info: Audio Coding 3
Commercial name: Dolby Digital
Codec ID: 2000
Duration: 1 h 20 min
Bit rate mode: Constant
Bit rate: 448 kb/s
Channel (s): 6 channels
Channel layout: L R C LFE Ls Rs
Sampling rate: 48.0 kHz
Frame rate: 31.250 FPS (1536 SPF)
Compression mode: Lossy
Stream size: 258 MiB (18%)
Alignment: Split across interleaves
Interleave, duration: 42 ms (1.00 video frame)
Interleave, preload duratio: 500 ms
Service kind: Complete Main
Dialog Normalization: -31 dB
cmixlev: -4.5 dB
surmixlev: -6 dB
dialnorm_Average: -31 dB
dialnorm_Minimum: -31 dB
dialnorm_Maximum: -31 dB

Другие фильмы
У данной публикации пока нет комментариев.
Будь первым, оставь своё мнение в комментариях!
Информация
Посетители, находящиеся в группе Гости, не могут оставлять комментарии к данной публикации.
Самый популярный релиз недели
Донаты
Мы в соц. сетях / RSS

Лучшие релизы месяца
Лучшие SD недели
Лучшие 720p недели
Лучшие 1080p недели
Лучшие 4K недели
Вы недавно смотрели
Реклама
Последние комментарии
...

fataxdd

16 июля 2024 07:13

...

Rustik99

12 июля 2024 10:11

...

Rograr

6 июля 2024 19:56

...

fenix

2 июля 2024 07:45

...

Fidelrus

28 июня 2024 13:53

Реклама